Важное объявление!
У Нас Все раздачи мультитрекерные, при нуле пиров в релизах, можете смело вставать на закачку!
 
Автор Сообщение

HUNTER

Стаж:
4 года 8 месяцев
Сообщений:
62016

Репутация: 101

[+] [-]
Вне форума [Профиль] [ЛС]

Широко шагая / Walking Tall-
Страна: США
Студия: Metro-Goldwyn-Mayer, Cub Eight Productions, Hyde Park Entertainment, Burke/Samples/Foster Productions, Mandeville Films, WWE Films
Жанр: Боевик, криминал
Год выпуска: 2004
Продолжительность: 01:26:13-Перевод: Профессиональный (дублированный)
Перевод 2: Профессиональный (многоголосый закадровый)
Cубтитры: русские, английские
Оригинальная аудиодорожка: английский-Режиссер: Кевин Брэй / Kevin Bray
В ролях: Дуэйн Джонсон, Джонни Ноксвилл, Нил МакДонаф, Кристен Уилсон, Эшли Скотт, Хлео Томас, Джон Бизли, Барбара Тарбак, Майкл Боуэн, Кевин Дюран, Эндрю Тарбет, Патрик Галлахер, Джон Стюарт, Эрик Брекер, Райан Роббинс, Майкл Адамуэйт, Дарси Лори, Фред Китинг, Бен Кардинал, Кетт Тортон, Теренс Келли, Том Шолте, Марк Хотон, Джеймс Эшкрофт, Эрик Кинлисайд, Аарон Дуглас, Майкл Солтис, Эйприл Телек, Сандра Стейр, Бен Коттон, Коби Смолдерс, Челси Амбер МакИхни, Кайя Джестал, Милоди Чирпэв, Алана Дроздюк, Сандра Игу
Описание: Шериф графства МакНейри Буфорд Пассер, оставался на своем посту три срока подряд. За время своей службы он отчаянно боролся с преступностью, не раз вступая в неравную схватку. После убийства его горячо любимой жены он почувствовал себя совершенно беспомощным. Но вот солдат особых войск армии США Крис Ваугн возвращается домой, надеясь наладить небольшой семейный бизнес, за время его отсутствия многое изменилось…
Уютный, спокойный городок теперь кишит насилием, заполнен наркотиками, а террор стал там обычным делом. За всем этим стоит хозяин казино, в котором его бывшая подружка работает танцовщицей. Исполненный жажды мести и справедливости, отлично подготовленный солдат Крис становится шерифом.-Доп. информация: Релиз сделан из ремукса, скаченного в сети. Оттуда же взяты главы, аудиодорожки и субтитры. Меню самодельное. Двд собрал в DVD Lab. Видео сжато Pro Coder в 2 прохода по этой инструкции. За столь ценное руководство спасибо Mikky72. Отдельная благодарность уходит ZVNV, который стойко выдержал испытание моими глупыми и не очень вопросами Еще одно спасибо AlsKnight за решение проблемы с кадрами.-Релиз групп: -
СЭМПЛ
-Меню: Есть, на русском языке, статичное, озвученное-Тип релиза: DVD9 (Custom)
Контейнер: DVD-Video
Видео: NTSC 16:9 (720x480) VBR
Аудио : Русский (Dolby AC3, 6 ch, 768 кб/с, дубляж)
Аудио 2: Русский (Dolby AC3, 6 ch, 384 кб/с, многоголосый)
Аудио 3: Английский (Dolby AC3, 6 ch, 448 кб/с)-

MI исходника

Формат : BDAV
Формат/Информация : Blu-ray Video
Размер файла : 17,7 Гбайт
Продолжительность : 1 ч. 26 м.
Режим общего битрейта : Переменный
Общий поток : 29,3 Мбит/сек
Максимальный общий битрейт : 35,5 Мбит/сек
Видео
Идентификатор : 4113 (0x1011)
Идентификатор меню : 1 (0x1)
Формат : MPEG Video
Версия формата : Version 2
Профиль формата : Main@High
Параметр BVOP формата : Да
Параметр матрицы формата : Выборочная
Параметр GOP формата : M=3, N=12
Идентификатор кодека : 2
Продолжительность : 1 ч. 26 м.
Вид битрейта : Переменный
Битрейт : 25,8 Мбит/сек
Максимальный битрейт : 39,0 Мбит/сек
Ширина : 1920 пикселей
Высота : 1080 пикселей
Соотношение сторон : 16:9
Частота кадров : 23,976 кадра/сек
Цветовое пространство : YUV
Субдискретизация насыщенности : 4:2:0
Битовая глубина : 8 бит
Тип развёртки : Прогрессивная
Метод сжатия : С потерями
Бит/(Пиксели*Кадры) : 0.519
Размер потока : 15,5 Гбайт (88%)
Аудио #1
Идентификатор : 4352 (0x1100)
Идентификатор меню : 1 (0x1)
Формат : DTS
Формат/Информация : Digital Theater Systems
Идентификатор кодека : 130
Продолжительность : 1 ч. 26 м.
Вид битрейта : Постоянный
Битрейт : 755 Кбит/сек
Каналы : 6 каналов
Расположение каналов : Front: L C R, Side: L R, LFE
Частота : 48,0 КГц
Битовая глубина : 24 бит
Метод сжатия : С потерями
Размер потока : 467 Мбайт (3%)
Язык : Russian
Аудио #2
Идентификатор : 4353 (0x1101)
Идентификатор меню : 1 (0x1)
Формат : DTS
Формат/Информация : Digital Theater Systems
Профиль формата : MA / Core
Режим смешивания : Stream extension
Идентификатор кодека : 134
Продолжительность : 1 ч. 26 м.
Вид битрейта : Переменный
Битрейт : 1561 Кбит/сек / 1510 Кбит/сек
Каналы : 6 каналов
Расположение каналов : Front: L C R, Side: L R, LFE
Частота : 48,0 КГц
Битовая глубина : 24 бит
Метод сжатия : Без потерь / Lossy
Язык : English

DVDInfo

Size: 6.01 Gb ( 6 305 980 KBytes ) - DVD-9
Enabled regions: 1, 2, 3, 4, 5, 6, 7, 8
VTS_01 :
Play Length: 01:26:13
Video: NTSC 16:9 (720x480) VBR, Auto Pan&Scan
Audio:
Russian (DTS, 6 ch)
Russian (Dolby AC3, 6 ch)
English (Dolby AC3, 6 ch)
Subtitles:
Russian
English
Menu Video:
NTSC 4:3 (720x480) VBR
Menu English Language Unit :
Root Menu

Скриншоты меню

Скриншоты

Скрипт

LoadPlugin("C:\Users\SkyWalker\Desktop\DGDecodeNV\DGDecodeNV.dll")
DGSource("project.dgi") #если в исходнике отсутствуют артефакты
LoadPlugin("C:\Program Files\AutoYUY2\AutoYUY2.dll") #более медленный, но качественный аналог ConvertToYUY2()
AutoYUY2()
LoadPlugin("C:\Program Files\ColorMatrix\ColorMatrix.dll")
ColorMatrix(mode="Rec.709->Rec.601", inputFR=false, clamp=0) #корректировка цветовой шкалы, если проверка показывает 16-235
AssumeFPS("ntsc_film")
BicubicResize(720, 480, 0, 0.5) #ресайз методом Catmull-Rom spline
AddBorders (0,0,0,0) #bbb=00

Программы, используемые при создание этого релиза

Видео
Rhozet Carbon Coder - конвертация видео
AviSynth - обработка видео
DGDecodeNV - индексирование
Програмы для разборки/сборки ДВД
PgcDemux - демукс исходного DVD
tsMuxeR - разборка ремукса
MuxMan - сборка видео
Работа со звуком
TranzcodeGUI - извлечение wav
Sonic Foundry Soft Encode - кодирование и сборка ac3 дорожки
Работа с субтитрами
DVDSubEdit - корректировка таймингов и расположения на экране субтитров
Работа с меню и реавторинг
Adobe Photoshop - редактирование меню
DVDReMakePro - реавторинг диска

Точка перехода


_________________
Показать сообщения:    

Текущее время: Сегодня 05:03

Часовой пояс: GMT



Вы не можете начинать темы
Вы не можете отвечать на сообщения
Вы не можете редактировать свои сообщения
Вы не можете удалять свои сообщения
Вы не можете голосовать в опросах
Вы не можете прикреплять файлы к сообщениям
Вы не можете скачивать файлы
Наши партнеры: интернет магазин Ивановского трикотажа textilla.ru