Ивановский Торрент трекер
Яндекс.Погода
 

[Цитировать]
HUNTER


Шестое чувство, или Методика развития интуиции.-Год выпуска: 2006
Страна: Россия
Сайт производителя: отсутствуeт
Тематика: психология
Тип материала: Обучающее видео
Продолжительность: 01:04:54
Автор: Максим Матушевский
Язык: Русский
Субтитры: отсутствуют-Описание: Мы хотим знать, что ожидает нас в будущем. Мы хотим знать, какой из множества возможных вариантов решения проблемы более точный и правильный. Мы хотим совершать верные поступки даже тогда, когда нет времени или необходимой информации на обдумывание и анализ происходящего. Возможно ли это? Возможно! Развивать интуитивное восприятие - значит прийти к умению точно понимать о чем говорят наши чувства и уметь им доверять. Авторы методики утверждают, что главное научить свое тело правильно, без искажений принимать и передавать информацию. Далее эта способность естественным образом переносится на сознание. Ценность данного практического курса в том, что выполняя упражнения, вы учитесь не только интуитивно воспринимать действительность, но и вырабатываете способность правильно оказывать влияние, понимать его... Методика построена на упражнениях для парной и групповой практики.-Качество: DVDRip
Формат: AVI
Видео кодек: XviD
Аудио кодек: AC3
Видео: 672x510 (1.32:1), 25 fps, XviD build 46 ~1446 kbps avg, 0.17 bit/pixel
Аудио: 48 kHz, AC3 Dolby Digital, 2/0 (L,R) ch, ~224.00 kbps avg-

MediaInfo

Код: copyText_writeLink('this.parentNode.parentNode.nextSibling.nextSibling'); Общее
Полное имя : D:\обуч\Шестое чувство или методика развития интуиции.avi
Формат : AVI
Формат/Информация : Audio Video Interleave
Размер файла : 781 Мбайт
Продолжительность : 1 ч. 4 м.
Общий поток : 1681 Кбит/сек
Название фильма : Шестое чувство или методика развития интуиции (Максим Матушевский) [2006 Практический курс DVD-5].Title3.DVDRip
Программа кодирования : Lavf52.17.0
Формат оригинала/Имя : Шестое чувство или методика развития интуиции (Максим Матушевский) [2006 Практический курс DVD-5]
Видео
Идентификатор : 0
Формат : MPEG-4 Visual
Профиль формата : Simple@L3
Параметр BVOP формата : Нет
Параметр QPel формата : Нет
Параметр GMC формата : Без точки перехода
Параметр матрицы формата : Default (H.263)
Идентификатор кодека : XVID
Идентификатор кодека/Подсказка : XviD
Продолжительность : 1 ч. 4 м.
Битрейт : 1446 Кбит/сек
Ширина : 672 пикселя
Высота : 510 пикселей
Соотношение сторон : 4:3
Частота кадров : 25,000 кадров/сек
Цветовое пространство : YUV
Субдискретизация насыщенности : 4:2:0
Битовая глубина : 8 бит
Тип развёртки : Прогрессивная
Метод сжатия : С потерями
Бит/(Пиксели*Кадры) : 0.169
Размер потока : 672 Мбайт (86%)
Библиотека кодирования : XviD 1.1.2 (UTC 2006-11-01)
Аудио
Идентификатор : 1
Формат : AC-3
Формат/Информация : Audio Coding 3
Расширение режима : CM (complete main)
Параметр Endianness формата : Big
Идентификатор кодека : 2000
Продолжительность : 1 ч. 4 м.
Вид битрейта : Постоянный
Битрейт : 224 Кбит/сек
Каналы : 2 канала
Расположение каналов : Front: L R
Частота : 48,0 КГц
Битовая глубина : 16 бит
Метод сжатия : С потерями
Размер потока : 104 Мбайт (13%)
Выравнивание : Соединение по промежуткам
Продолжительность промежутка : 32 мс. (0,80 видеокадр)
Время предзагрузки промежутка : 32 мс.

Скриншоты

-


Показать сообщения:    

Текущее время: 12-Дек 14:16

Часовой пояс: UTC ± 0


Вы не можете начинать темы
Вы не можете отвечать на сообщения
Вы не можете редактировать свои сообщения
Вы не можете удалять свои сообщения
Вы не можете голосовать в опросах
Вы не можете прикреплять файлы к сообщениям
Вы не можете скачивать файлы

!ВНИМАНИЕ!
Сайт не предоставляет электронные версии произведений, а занимается лишь коллекционированием и каталогизацией ссылок, присылаемых и публикуемых на форуме нашими читателями. Если вы являетесь правообладателем какого-либо представленного материала и не желаете, чтобы ссылка на него находилась в нашем каталоге, свяжитесь с нами, и мы незамедлительно удалим ее. Файлы для обмена на трекере предоставлены пользователями сайта, и администрация не несет ответственности за их содержание. Просьба не заливать файлы, защищенные авторскими правами, а также файлы нелегального содержания!