Важное объявление!
У Нас Все раздачи мультитрекерные, при нуле пиров в релизах, можете смело вставать на закачку!
 
Автор Сообщение

сеня

Стаж:
4 года 7 месяцев
Сообщений:
39

Репутация: 1

[+] [-]
Вне форума [Профиль] [ЛС]

Шерлок Холмс: Игра теней / Sherlock Holmes: A Game of Shadows Год выпуска: 2011
Страна: США / Warner Bros. Pictures, Village Roadshow Pictures
Жанр: боевик, триллер, криминал, детектив, приключения
Продолжительность: 02:08:44
Перевод: Профессиональный (полное дублирование)
Режиссер: Гай Ричи
В ролях: Роберт Дауни мл., Джуд Лоу, Нуми Рапас, Рэйчел МакАдамс, Джаред Харрис, Стивен Фрай, Пол Андерсон, Келли Райлли, Джеральдин Джеймс, Эдди Марсан
Описание: Когда крон-принц Австрии был найден мертвым, все улики, по мнению инспектора Лестрейда, указывали на самоубийство. Но Шерлок Холмс приходит к выводу, что наследник престола был убит, и это убийство — всего лишь маленький кусочек мозаики, созданной профессором Мориарти, на самом деле гораздо более грандиозной и зловещей. Расследование оборачивается еще большей опасностью и ведет Холмса, Ватсона и их невольную союзницу цыганку Сим по всей Европе, из Англии во Францию, затем в Германию и, наконец, в Швейцарию. Но коварный Мориарти всегда на шаг впереди, он плетет паутину из смерти и разрушений, являющихся частью его великого плана, успех которого изменит ход истории.
Качество: BDRip 1080p
Видео: MPEG-4 AVC, 12.3 Мбит/с, 1920x800, 23.976 кадр/с
Аудио: Русский, украинский (AC3, 6 ch, 448 Кбит/с), английский (DTS, 6 ch, 1510 Кбит/с)
Размер: 13.50 ГБ
Субтитры: Русские (форсированные, полные), английские

M.I

Общее
Уникальный идентификатор : 198583790037589928574448782278134288760 (0x9565D8C5F0BB78C78CC38BC378E75178)
Полное имя : C:\Users\танюша\Downloads\Sherlok.Holms-Igra.tenej.2011.x264.BDRip(1080p).mkv
Формат : Matroska
Размер файла : 13,5 Гбайт
Продолжительность : 2 ч. 8 м.
Общий поток : 15,0 Мбит/сек
Название фильма : --SCHUMAHER--
Дата кодирования : UTC 2012-04-23 15:47:42
Программа кодирования : mkvmerge v5.5.0 ('Healer') built on Apr 6 2012 21:43:24
Библиотека кодирования : libebml v1.2.3 + libmatroska v1.3.0
Видео
Идентификатор : 1
Формат : AVC
Формат/Информация : Advanced Video Codec
Профиль формата : High@L4.1
Параметр CABAC формата : Да
Параметр ReFrames формата : 5 кадров
Идентификатор кодека : V_MPEG4/ISO/AVC
Продолжительность : 2 ч. 8 м.
Битрейт : 12,3 Мбит/сек
Ширина : 1920 пикс.
Высота : 800 пикс.
Соотношение сторон : 2,40:1
Частота кадров : 23,976 кадр/сек
Цветовое пространство : YUV
Подвыборка цветности : 4:2:0
Битовая глубина : 8 бит
Тип развёртки : Прогрессивная
Бит/(Пиксели*Кадры) : 0.334
Размер потока : 11,1 Гбайт (82%)
Библиотека кодирования : x264 core 122 r2184 5c85e0a
Настройки программы : cabac=1 / ref=5 / deblock=1:-3:-3 / analyse=0x3:0x113 / me=umh / subme=11 / psy=1 / psy_rd=1.13:0.00 / mixed_ref=1 / me_range=16 / chroma_me=1 / trellis=2 / 8x8dct=1 / cqm=0 / deadzone=21,11 / fast_pskip=0 / chroma_qp_offset=-2 / threads=6 / sliced_threads=0 / nr=0 / decimate=0 / interlaced=0 / bluray_compat=0 / constrained_intra=0 / bframes=8 / b_pyramid=2 / b_adapt=2 / b_bias=0 / direct=3 / weightb=1 / open_gop=0 / weightp=2 / keyint=250 / keyint_min=23 / scenecut=40 / intra_refresh=0 / rc=crf / mbtree=0 / crf=18.0 / qcomp=0.80 / qpmin=0 / qpmax=69 / qpstep=4 / ip_ratio=1.30 / pb_ratio=1.20 / aq=1:0.60
Язык : English
Аудио #1
Идентификатор : 2
Формат : AC-3
Формат/Информация : Audio Coding 3
Расширение режима : CM (complete main)
Идентификатор кодека : A_AC3
Продолжительность : 2 ч. 8 м.
Вид битрейта : Постоянный
Битрейт : 448 Кбит/сек
Каналы : 6 каналов
Расположение каналов : Front: L C R, Side: L R, LFE
Частота : 48,0 КГц
Битовая глубина : 16 бит
Метод сжатия : С потерями
Размер потока : 413 Мбайт (3%)
Язык : Russian
Аудио #2
Идентификатор : 3
Формат : AC-3
Формат/Информация : Audio Coding 3
Расширение режима : CM (complete main)
Идентификатор кодека : A_AC3
Продолжительность : 2 ч. 8 м.
Вид битрейта : Постоянный
Битрейт : 448 Кбит/сек
Каналы : 6 каналов
Расположение каналов : Front: L C R, Side: L R, LFE
Частота : 48,0 КГц
Битовая глубина : 16 бит
Метод сжатия : С потерями
Размер потока : 413 Мбайт (3%)
Язык : Ukrainian
Аудио #3
Идентификатор : 4
Формат : DTS
Формат/Информация : Digital Theater Systems
Идентификатор кодека : A_DTS
Продолжительность : 2 ч. 8 м.
Вид битрейта : Постоянный
Битрейт : 1510 Кбит/сек
Каналы : 6 каналов
Расположение каналов : Front: L C R, Side: L R, LFE
Частота : 48,0 КГц
Битовая глубина : 24 бит
Метод сжатия : С потерями
Размер потока : 1,36 Гбайт (10%)
Язык : English
Текст #1
Идентификатор : 5
Формат : UTF-8
Идентификатор кодека : S_TEXT/UTF8
Идентификатор кодека/Информация : UTF-8 Plain Text
Заголовок : Forced
Язык : Russian
Текст #2
Идентификатор : 6
Формат : UTF-8
Идентификатор кодека : S_TEXT/UTF8
Идентификатор кодека/Информация : UTF-8 Plain Text
Заголовок : Full
Язык : Russian
Текст #3
Идентификатор : 7
Формат : UTF-8
Идентификатор кодека : S_TEXT/UTF8
Идентификатор кодека/Информация : UTF-8 Plain Text
Язык : English
Текст #4
Идентификатор : 8
Формат : UTF-8
Идентификатор кодека : S_TEXT/UTF8
Идентификатор кодека/Информация : UTF-8 Plain Text
Заголовок : SDH
Язык : English
Меню
00:00:00.000 : en:00:00:00.000
00:09:18.266 : en:00:09:18.266
00:19:37.635 : en:00:19:37.635
00:30:46.845 : en:00:30:46.845
00:40:13.703 : en:00:40:13.703
00:50:29.026 : en:00:50:29.026
00:59:45.457 : en:00:59:45.457
01:09:20.823 : en:01:09:20.823
01:18:58.275 : en:01:18:58.275
01:30:08.695 : en:01:30:08.695
01:39:08.734 : en:01:39:08.734
01:49:50.375 : en:01:49:50.375
02:00:24.717 : en:02:00:24.717

Скриншоты



Последний раз редактировалось: сеня (2012-07-22 18:52), всего редактировалось 1 раз

Shalun

Стаж:
4 года 7 месяцев
Сообщений:
802

Репутация: 123

[+] [-]
Вне форума [Профиль] [ЛС]

сеня, шапку поправь!качества нет!!!

_________________
Показать сообщения:    

Текущее время: Сегодня 10:05

Часовой пояс: GMT



Вы не можете начинать темы
Вы не можете отвечать на сообщения
Вы не можете редактировать свои сообщения
Вы не можете удалять свои сообщения
Вы не можете голосовать в опросах
Вы не можете прикреплять файлы к сообщениям
Вы не можете скачивать файлы
Наши партнеры: интернет магазин Ивановского трикотажа textilla.ru