Ивановский Торрент трекер
Яндекс.Погода
 

[Цитировать]
Smir

Шерлок Холмс: Игра теней / Sherlock Holmes: A Game of Shadows- -Год выпуска: 2011
Страна: США
Жанр: боевик, триллер, криминал, детектив, приключения
Продолжительность: 02:08:44
Перевод: Профессиональный (полное дублирование); Авторский (Гаврилов Андрей); Авторский (Сербин Юрий)
Режиссер: Гай Ричи / Guy Ritchie
В ролях:

Роберт Дауни мл. (Sherlock Holmes,), Джуд Лоу (Dr. John Watson), Нуми Рапас (Madam Simza Heron), Джаред Харрис (Professor James Moriarty), Пол Андерсон (Colonel Sebastian Moran), Стивен Фрай (Mycroft Holmes), Рэйчел МакАдамс (Irene Adler), Келли Райлли (Mary Watson), Джеральдин Джеймс (Mrs. Hudson), Эдди Марсан (Inspector Lestrade), Уильям Хьюстон (Constable Clark), Вольф Калер (Doctor Hoffmanstahl)-Описание:     1891 год. В Вене и Страсбурге проходит серия терактов, организованных анархистами или националистами, а по всей Европе происходят таинственные убийства. Шерлок Холмс считает, что за всем этим стоит профессор Джеймс Мориарти - математический гений, автор знаменитых лекций и трудов.-
MPAA: - Детям до 13 лет просмотр не желателен-Источник:
Качество: BDRip - 720p
Формат: MKV
Видео: 1280x534 (2.40:1); AVC; 5289 Kbps; 23,976 fps; 0,323 bit/pixel
Аудио №1: русский; AC3; 448 Kbps; Front: L C R, Side: L R, LFE ch; 16 bit; 48 kHz; | Дубляж, Blu-ray CEE
Аудио №2: русский; DTS; 1510 Kbps; Front: L C R, Side: L R, LFE ch; 24 bit; 48 kHz; | Одноголосый закадровый, Ю.Сербин
Аудио №3: русский; DTS; 1510 Kbps; Front: L C R, Side: L R, LFE ch; 24 bit; 48 kHz; | Одноголосый закадровый, А.Гаврилов
Аудио №4: украинский; AC3; 448 Kbps; Front: L C R, Side: L R, LFE ch; 16 bit; 48 kHz; | Дубляж, Blu-ray CEE
Аудио №5: английский; DTS; 1510 Kbps; Front: L C R, Side: L R, LFE ch; 24 bit; 48 kHz; | Original
Субтитры: Russian (x2), Russian (forced), English--

Дополнительная информация

  • Брэд Питт, Гари Олдман, Дэниел Дэй-Льюис, Шон Пенн и Хавьер Бардем рассматривались на роль профессора Мориарти.
  • Макияж Холмса в сцене разборки в поезде — это аллюзия на внешний вид Джокера в исполнении Хита Леджера («Темный рыцарь»).
  • В финальной части картины, Шерлок Холмс ставит профессору шах слоном, на что тот отвечает рокировкой. Устная партия, тем не менее, продолжается. По правилам, рокировка из-под шаха запрещена.
-Сценарий: Киран Малруни / Kieran Mulroney, Мишель Малруни / Michele Mulroney, Артур Конан Дойл / Arthur Conan Doyle
Продюсер: Сьюзан Дауни / Susan Downey, Дэн Лин / Dan Lin, Джоэл Силвер / Joel Silver, Лайонел Уигрэм / Lionel Wigram, Брюс Берман / Bruce Berman
Оператор: Филипп Русло / Philippe Rousselot
Композитор: Ханс Циммер / Hans Zimmer
Бюджет: $125 000 000
Сборы в США: $186 848 418
Сборы в России: $28 714 484
Сборы в мире: $534 848 418
Мировая премьера: 10 декабря 2011
Релиз на DVD: 5 мая 2012, «CP Дистрибуция»
Релиз на Blu-ray: 5 мая 2012, «CP Дистрибуция»

Скриншоты

Media Info

General
Unique ID : 227696595940314968319304955616432840499 (0xAB4CC4ECA0A4F851AA98EA81F2595F33)
Complete name : D:\Видео\Фильмы\Sherlock.Holmes.A.Game.of.Shadows.2011.720p.BluRay.3xRus.Ukr.Eng.HDCLUB.mkv
Format : Matroska
Format version : Version 2
File size : 9.83 GiB
Duration : 2h 8mn
Overall bit rate : 10.9 Mbps
Encoded date : UTC 2012-08-07 08:22:25
Writing application : mkvmerge v3.4.0 ('Rapunzel') сборка от May 15 2010 09:38:20
Writing library : libebml v0.8.0 + libmatroska v0.9.0
Video
ID : 1
Format : AVC
Format/Info : Advanced Video Codec
Format profile : High@L4.1
Format settings, CABAC : Yes
Format settings, ReFrames : 12 frames
Codec ID : V_MPEG4/ISO/AVC
Duration : 2h 8mn
Bit rate : 5 290 Kbps
Width : 1 280 pixels
Height : 534 pixels
Display aspect ratio : 2.40:1
Frame rate : 23.976 fps
Color space : YUV
Chroma subsampling : 4:2:0
Bit depth : 8 bits
Scan type : Progressive
Bits/(Pixel*Frame) : 0.323
Stream size : 4.76 GiB (48%)
Title : Sherlock_Holmes_720p_ThD
Writing library : x264 core 120 r2146 bcd41db
Encoding settings : cabac=1 / ref=12 / deblock=1:-3:-3 / analyse=0x3:0x133 / me=umh / subme=9 / psy=1 / psy_rd=1.05:0.00 / mixed_ref=1 / me_range=64 / chroma_me=1 / trellis=2 / 8x8dct=1 / cqm=0 / deadzone=21,11 / fast_pskip=0 / chroma_qp_offset=-2 / threads=18 / sliced_threads=0 / nr=0 / decimate=0 / interlaced=0 / bluray_compat=0 / constrained_intra=0 / bframes=11 / b_pyramid=2 / b_adapt=2 / b_bias=0 / direct=3 / weightb=1 / open_gop=0 / weightp=2 / keyint=250 / keyint_min=23 / scenecut=40 / intra_refresh=0 / rc=crf / mbtree=0 / crf=16.0 / qcomp=0.60 / qpmin=0 / qpmax=69 / qpstep=4 / ip_ratio=1.40 / pb_ratio=1.30 / aq=2:0.55
Language : English
Default : No
Forced : No
Audio #1
ID : 2
Format : AC-3
Format/Info : Audio Coding 3
Mode extension : CM (complete main)
Codec ID : A_AC3
Duration : 2h 8mn
Bit rate mode : Constant
Bit rate : 448 Kbps
Channel(s) : 6 channels
Channel positions : Front: L C R, Side: L R, LFE
Sampling rate : 48.0 KHz
Bit depth : 16 bits
Compression mode : Lossy
Stream size : 413 MiB (4%)
Title : AC3 5.1 @ 448 kbps - Дубляж, Blu-ray CEE
Language : Russian
Default : Yes
Forced : No
Audio #2
ID : 3
Format : DTS
Format/Info : Digital Theater Systems
Codec ID : A_DTS
Duration : 2h 8mn
Bit rate mode : Constant
Bit rate : 1 510 Kbps
Channel(s) : 6 channels
Channel positions : Front: L C R, Side: L R, LFE
Sampling rate : 48.0 KHz
Bit depth : 24 bits
Compression mode : Lossy
Stream size : 1.36 GiB (14%)
Title : DTS 5.1 @ 1536 kbps - Одноголосый закадровый, Ю.Сербин
Language : Russian
Default : No
Forced : No
Audio #3
ID : 4
Format : DTS
Format/Info : Digital Theater Systems
Codec ID : A_DTS
Duration : 2h 8mn
Bit rate mode : Constant
Bit rate : 1 510 Kbps
Channel(s) : 6 channels
Channel positions : Front: L C R, Side: L R, LFE
Sampling rate : 48.0 KHz
Bit depth : 24 bits
Compression mode : Lossy
Stream size : 1.36 GiB (14%)
Title : DTS 5.1 @ 1536 kbps - Одноголосый закадровый, А.Гаврилов
Language : Russian
Default : No
Forced : No
Audio #4
ID : 5
Format : AC-3
Format/Info : Audio Coding 3
Mode extension : CM (complete main)
Codec ID : A_AC3
Duration : 2h 8mn
Bit rate mode : Constant
Bit rate : 448 Kbps
Channel(s) : 6 channels
Channel positions : Front: L C R, Side: L R, LFE
Sampling rate : 48.0 KHz
Bit depth : 16 bits
Compression mode : Lossy
Stream size : 413 MiB (4%)
Title : AC3 5.1 @ 448 kbps - Дубляж, Blu-ray CEE
Language : Ukrainian
Default : No
Forced : No
Audio #5
ID : 6
Format : DTS
Format/Info : Digital Theater Systems
Codec ID : A_DTS
Duration : 2h 8mn
Bit rate mode : Constant
Bit rate : 1 510 Kbps
Channel(s) : 6 channels
Channel positions : Front: L C R, Side: L R, LFE
Sampling rate : 48.0 KHz
Bit depth : 24 bits
Compression mode : Lossy
Stream size : 1.36 GiB (14%)
Title : DTS 5.1 @ 1536 kbps
Language : English
Default : No
Forced : No
Text #1
ID : 7
Format : UTF-8
Codec ID : S_TEXT/UTF8
Codec ID/Info : UTF-8 Plain Text
Title : Blu-ray CEE
Language : Russian
Default : No
Forced : No
Text #2
ID : 8
Format : UTF-8
Codec ID : S_TEXT/UTF8
Codec ID/Info : UTF-8 Plain Text
Title : voronine
Language : Russian
Default : No
Forced : No
Text #3
ID : 9
Format : UTF-8
Codec ID : S_TEXT/UTF8
Codec ID/Info : UTF-8 Plain Text
Title : forced
Language : Russian
Default : Yes
Forced : No
Text #4
ID : 10
Format : UTF-8
Codec ID : S_TEXT/UTF8
Codec ID/Info : UTF-8 Plain Text
Title : English SDH
Language : English
Default : No
Forced : No
Menu
00:00:00.000 : en:00:00:00.000
00:09:18.266 : en:00:09:18.266
00:19:37.635 : en:00:19:37.635
00:30:46.845 : en:00:30:46.845
00:40:13.703 : en:00:40:13.703
00:50:29.026 : en:00:50:29.026
00:59:45.457 : en:00:59:45.457
01:09:20.823 : en:01:09:20.823
01:18:58.275 : en:01:18:58.275
01:30:08.695 : en:01:30:08.695
01:39:08.734 : en:01:39:08.734
01:49:50.375 : en:01:49:50.375
02:00:24.717 : en:02:00:24.717
Показать сообщения:    

Текущее время: 20-Окт 18:32

Часовой пояс: UTC - 1


Вы не можете начинать темы
Вы не можете отвечать на сообщения
Вы не можете редактировать свои сообщения
Вы не можете удалять свои сообщения
Вы не можете голосовать в опросах
Вы не можете прикреплять файлы к сообщениям
Вы не можете скачивать файлы

!ВНИМАНИЕ!
Сайт не предоставляет электронные версии произведений, а занимается лишь коллекционированием и каталогизацией ссылок, присылаемых и публикуемых на форуме нашими читателями. Если вы являетесь правообладателем какого-либо представленного материала и не желаете, чтобы ссылка на него находилась в нашем каталоге, свяжитесь с нами, и мы незамедлительно удалим ее. Файлы для обмена на трекере предоставлены пользователями сайта, и администрация не несет ответственности за их содержание. Просьба не заливать файлы, защищенные авторскими правами, а также файлы нелегального содержания!