Ивановский Торрент трекер
Яндекс.Погода
 

[Цитировать]
HUNTER

Шерлок Холмс: Бегство в Алжир / Pursuit To Algiers Год выпуска: 1945.
Страна: США .
Киностудии: Universal Pictures.
Жанр: Детектив, приключения, триллер.
Продолжительность: 01:05:05.
Перевод: Профессиональный (многоголосый закадровый) DVD Classic.
Субтитры: нет.
Оригинальная аудио дорожка: Английская.
Режиссер: Рой Уильям Нилл /Roy William Neill/.
В ролях:
Бэзил Рэтбоун, Найджел Брюс, Марджори Риордан, Розалинд Айван, Мортон Лоури, Лесли Винсент, Мартин Кослек, Рекс Эванс, Джон Эбботт, Джералд Хамер, Уильям Уи Уилли Дэвис, Фредерик Уорлок, Свен Хьюго Борг.
Описание:
Шерлок Холмс и доктор Ватсон сопровождают наследника Восточного царства, на пассажирском корабле из Англии в Алжир. Принца представляют, как племянника Ватсона, и он является объектом многочисленных покушений лиц, желающих захватить контроль над страной.
Доп. информация:
Премьера: 26 октября 1945 года.

Еще постеры

Релиз.....
За исходник большое спасибо CiNEFiLE!!!
Релиз содержит две звуковые дорожки: профессиональный многоголосый перевод (DVD Classic) и оригинальную английскую!
Большое спасибо
Alevtina за найденный в сети материал!!!
Большое спасибо
pmv за синхронизацию звука!!!


Исходник: 720p BluRay x264-"CiNEFiLE"
Качество: BDRip 720p
Формат: mkv
Видео: MPEG-4 AVC 960x720 23.98fps 4360Kbps
Аудио: #1: 48 kHz, AC3 Dolby Digital, 2/0 (L,R) ch, ~192 kbps - русский
............#2: 48 kHz, AC3 Dolby Digital, 2/0 ch, ~448 kbps - английский

Отчет MediaInfo

Общее
Полное имя : General
Unique ID : 253621662845976680982129449501719777021 (0xBECDC16894D47382B648293158F3CEFD)
Complete name : Begstvo.v.Alzhir.1945.x264.BDRip.720p.fenixclub.mkv
Format : Matroska
Format version : Version 4 / Version 2
File size : 2.27 GiB
Duration : 1h 5mn
Overall bit rate : 5 002 Kbps
Encoded date : UTC 2015-03-05 15:03:42
Writing application : mkvmerge v7.7.0 ('Six Voices') 64bit built on Feb 28 2015 23:39:33
Writing library : libebml v1.3.1 + libmatroska v1.4.2
DURATION : 01:05:04.800000000
NUMBER_OF_FRAMES : 122025
NUMBER_OF_BYTES : 218668800
_STATISTICS_WRITING_APP : mkvmerge v7.7.0 ('Six Voices') 64bit built on Feb 28 2015 23:39:33
_STATISTICS_WRITING_DATE_UT : 2015-03-05 15:03:42
_STATISTICS_TAGS : BPS DURATION NUMBER_OF_FRAMES NUMBER_OF_BYTES
Video
ID : 1
Format : AVC
Format/Info : Advanced Video Codec
Format profile : High@L4.1
Format settings, CABAC : Yes
Format settings, ReFrames : 8 frames
Codec ID : V_MPEG4/ISO/AVC
Duration : 1h 5mn
Bit rate : 4 360 Kbps
Width : 960 pixels
Height : 720 pixels
Display aspect ratio : 4:3
Frame rate mode : Constant
Frame rate : 23.976 fps
Color space : YUV
Chroma subsampling : 4:2:0
Bit depth : 8 bits
Scan type : Progressive
Bits/(Pixel*Frame) : 0.263
Stream size : 1.94 GiB (85%)
Writing library : x264 core 118 r2085 8a62835
Encoding settings : cabac=1 / ref=8 / deblock=1:-1:-1 / analyse=0x3:0x133 / me=umh / subme=10 / psy=1 / psy_rd=1.00:0.15 / mixed_ref=1 / me_range=32 / chroma_me=1 / trellis=2 / 8x8dct=1 / cqm=0 / deadzone=21,11 / fast_pskip=1 / chroma_qp_offset=-3 / threads=12 / sliced_threads=0 / nr=0 / decimate=1 / interlaced=0 / bluray_compat=0 / constrained_intra=0 / bframes=5 / b_pyramid=2 / b_adapt=2 / b_bias=0 / direct=3 / weightb=1 / open_gop=0 / weightp=2 / keyint=250 / keyint_min=1 / scenecut=60 / intra_refresh=0 / rc_lookahead=60 / rc=2pass / mbtree=1 / bitrate=4360 / ratetol=1.0 / qcomp=0.60 / qpmin=10 / qpmax=51 / qpstep=4 / cplxblur=20.0 / qblur=0.5 / vbv_maxrate=40000 / vbv_bufsize=40000 / nal_hrd=none / ip_ratio=1.40 / aq=1:1.00
Default : Yes
Forced : No
Audio #1
ID : 2
Format : AC-3
Format/Info : Audio Coding 3
Mode extension : CM (complete main)
Format settings, Endianness : Big
Codec ID : A_AC3
Duration : 1h 5mn
Bit rate mode : Constant
Bit rate : 192 Kbps
Channel(s) : 2 channels
Channel positions : Front: L R
Sampling rate : 48.0 KHz
Bit depth : 16 bits
Compression mode : Lossy
Stream size : 89.4 MiB (4%)
Default : Yes
Forced : No
Audio #2
ID : 3
Format : AC-3
Format/Info : Audio Coding 3
Mode extension : CM (complete main)
Format settings, Endianness : Big
Codec ID : A_AC3
Duration : 1h 5mn
Bit rate mode : Constant
Bit rate : 448 Kbps
Channel(s) : 2 channels
Channel positions : Front: L R
Sampling rate : 48.0 KHz
Bit depth : 16 bits
Compression mode : Lossy
Stream size : 209 MiB (9%)
Default : No
Forced : No

Скриншоты

Альтернативный хост


Показать сообщения:    

Текущее время: 15-Дек 23:52

Часовой пояс: UTC ± 0


Вы не можете начинать темы
Вы не можете отвечать на сообщения
Вы не можете редактировать свои сообщения
Вы не можете удалять свои сообщения
Вы не можете голосовать в опросах
Вы не можете прикреплять файлы к сообщениям
Вы не можете скачивать файлы

!ВНИМАНИЕ!
Сайт не предоставляет электронные версии произведений, а занимается лишь коллекционированием и каталогизацией ссылок, присылаемых и публикуемых на форуме нашими читателями. Если вы являетесь правообладателем какого-либо представленного материала и не желаете, чтобы ссылка на него находилась в нашем каталоге, свяжитесь с нами, и мы незамедлительно удалим ее. Файлы для обмена на трекере предоставлены пользователями сайта, и администрация не несет ответственности за их содержание. Просьба не заливать файлы, защищенные авторскими правами, а также файлы нелегального содержания!