Важное объявление!
У Нас Все раздачи мультитрекерные, при нуле пиров в релизах, можете смело вставать на закачку!
 
Автор Сообщение

mihis

[Профиль] [ЛС]

Шафт / Shaft«Есть вопросы?!»
Год выпуска: 2000
Страна: США, Германия, Munich Film Partners & Company (MFP) Shaft Productions, New Deal Productions, Paramount Pictures, Scott Rudin Productions, Shaft Productions
Жанр: Детектив, боевик, триллер
Продолжительность: 01:39:20
Перевод: Профессиональный (многоголосый, закадровый) + Профессиональный (двухголосый, закадровый) + Авторский (одноголосый, закадровый) Ю. Живов + Оригинал
Субтитры: Русские, английские
Режиссер: Джон Синглтон
В ролях: Сэмюэл Л. Джексон, Джеффри Райт, Кристиан Бэйл, Баста Раймс, Дэн Хедайя, Тони Коллетт, Ричард Раундтри, Ванесса Уильямс, Рубен Сантьяго-Хадсон, Йозеф Зоммер, Линн Тигпен, Филип Боско, Пэт Хингл, Ли Тергесен, Дэниэл фон Барген, Соня Сон, Питер МакРобби, Зэк Гренье, Рон Кастеллано, Фредди Рикс, Сиксто Рамос, Андре Ройо, Мехи Файфер, Гано Гриллз, Кэтрин Келлнер, Филип Рудольф, Анжела Питропинто, Джо Куитеро, Джанет Рэкуэл, Стю 'Ладж' Райли, Бонз Мэлоун, Генри Дж. Томас, Брайан Освальд Талбот, Престон Томас, Маршалл Т. Бротон, Лиза Кули
Описание: Все знают, что детектив Джон Шафт — самый крутой полицейский в городе. Некоторые полагают, что его жестокие методы «работы с уголовниками» не оправданы. Это не так.
Просто Джон один из тех людей в этом падшем городе, кто еще не забыл, что есть Справедливость! Вот за эту самую Справедливость Шафт и будет биться до конца.
Нести нелегкую службу Шафту помогает дядя — полицейский в отставке, у которого в молодости все бандиты «стояли на ушах» и которому сам король диско, Айзик Хейс посвятил свою песню.
На этот раз Шафту досталось сложное дело. Джону нужно, во что бы то ни стало, усадить за решетку безжалостного убийцу и найти единственного свидетеля, который ему в этом поможет.

Качество: BDRip-AVC
Формат: MKV
Видео кодек: H.264
Аудио кодек: AC3
Видео: AVC, 1024x426 (2.40:1), 23.976 fps, 3 000 Kbps (0.287 bit/pixel)
Аудио #1: AC3, 48.0 KHz, 6 ch, 384 Kbps, CBR MVO
Аудио #2: AC3, 48.0 KHz, 6 ch, 448 Kbps, CBR DVO
Аудио #3: AC3, 48.0 KHz, 2 ch, 192 Kbps, CBR AVO
Аудио #4: AC3, 48.0 KHz, 6 ch, 448 Kbps, CBR Eng

MediaInfo

Общее
Уникальный идентификатор : 177878946811250672238542761824472471514 (0x85D23D300541C2898BDB0C6DA64B17DA)
Полное имя : D:\Video\Shaft.2000.BDRip.(AVC)-MediaClub.mkv
Формат : Matroska
Версия формата : Version 4 / Version 2
Размер файла : 3,10 Гбайт
Продолжительность : 1 ч. 39 м.
Общий поток : 4471 Кбит/сек
Название фильма : -=MediaClub-kaspr=-
Дата кодирования : UTC 2013-08-16 11:44:09
Программа кодирования : mkvmerge v6.3.0 ('You can't stop me!') built on Jul 19 2013 16:27:38
Библиотека кодирования : libebml v1.3.0 + libmatroska v1.4.1
Видео
Идентификатор : 1
Формат : AVC
Формат/Информация : Advanced Video Codec
Профиль формата : High@L4.1
Параметр CABAC формата : Да
Параметр ReFrames формата : 9 кадров
Идентификатор кодека : V_MPEG4/ISO/AVC
Продолжительность : 1 ч. 39 м.
Битрейт : 3000 Кбит/сек
Ширина : 1024 пикселя
Высота : 426 пикселей
Соотношение сторон : 2,40:1
Режим частоты кадров : Постоянный
Частота кадров : 23,976 кадра/сек
Цветовое пространство : YUV
Субдискретизация насыщенности : 4:2:0
Битовая глубина : 8 бит
Тип развёртки : Прогрессивная
Бит/(Пиксели*Кадры) : 0.287
Размер потока : 2,02 Гбайт (65%)
Заголовок : -=MediaClub-kaspr=-
Библиотека кодирования : x264 core 130 r2273 b3065e6
Настройки программы : cabac=1 / ref=9 / deblock=1:-3:-3 / analyse=0x3:0x133 / me=umh / subme=11 / psy=1 / psy_rd=1.00:0.20 / mixed_ref=1 / me_range=48 / chroma_me=1 / trellis=2 / 8x8dct=1 / cqm=0 / deadzone=21,11 / fast_pskip=0 / chroma_qp_offset=-3 / threads=12 / lookahead_threads=3 / sliced_threads=0 / nr=0 / decimate=0 / interlaced=0 / bluray_compat=0 / constrained_intra=0 / bframes=10 / b_pyramid=2 / b_adapt=2 / b_bias=0 / direct=3 / weightb=1 / open_gop=0 / weightp=2 / keyint=240 / keyint_min=23 / scenecut=40 / intra_refresh=0 / rc=2pass / mbtree=0 / bitrate=3000 / ratetol=1.0 / qcomp=0.60 / qpmin=0 / qpmax=69 / qpstep=4 / cplxblur=20.0 / qblur=0.5 / ip_ratio=1.40 / pb_ratio=1.30 / aq=1:1.00
Default : Да
Forced : Да
Аудио #1
Идентификатор : 2
Формат : AC-3
Формат/Информация : Audio Coding 3
Расширение режима : CM (complete main)
Параметр Endianness формата : Big
Идентификатор кодека : A_AC3
Продолжительность : 1 ч. 39 м.
Вид битрейта : Постоянный
Битрейт : 384 Кбит/сек
Каналы : 6 каналов
Расположение каналов : Front: L C R, Side: L R, LFE
Частота : 48,0 КГц
Битовая глубина : 16 бит
Метод сжатия : С потерями
Размер потока : 273 Мбайт (9%)
Заголовок : ПМ
Язык : Russian
Default : Да
Forced : Да
Аудио #2
Идентификатор : 3
Формат : AC-3
Формат/Информация : Audio Coding 3
Расширение режима : CM (complete main)
Параметр Endianness формата : Big
Идентификатор кодека : A_AC3
Продолжительность : 1 ч. 39 м.
Вид битрейта : Постоянный
Битрейт : 448 Кбит/сек
Каналы : 6 каналов
Расположение каналов : Front: L C R, Side: L R, LFE
Частота : 48,0 КГц
Битовая глубина : 16 бит
Метод сжатия : С потерями
Размер потока : 318 Мбайт (10%)
Заголовок : ПД
Язык : Russian
Default : Нет
Forced : Нет
Аудио #3
Идентификатор : 4
Формат : AC-3
Формат/Информация : Audio Coding 3
Расширение режима : CM (complete main)
Параметр Endianness формата : Big
Идентификатор кодека : A_AC3
Продолжительность : 1 ч. 39 м.
Вид битрейта : Постоянный
Битрейт : 192 Кбит/сек
Каналы : 2 канала
Расположение каналов : Front: L R
Частота : 48,0 КГц
Битовая глубина : 16 бит
Метод сжатия : С потерями
Размер потока : 136 Мбайт (4%)
Заголовок : Живов
Язык : Russian
Default : Нет
Forced : Нет
Аудио #4
Идентификатор : 5
Формат : AC-3
Формат/Информация : Audio Coding 3
Расширение режима : CM (complete main)
Параметр Endianness формата : Big
Идентификатор кодека : A_AC3
Продолжительность : 1 ч. 39 м.
Вид битрейта : Постоянный
Битрейт : 448 Кбит/сек
Каналы : 6 каналов
Расположение каналов : Front: L C R, Side: L R, LFE
Частота : 48,0 КГц
Битовая глубина : 16 бит
Метод сжатия : С потерями
Размер потока : 318 Мбайт (10%)
Заголовок : Оригинал
Язык : English
Default : Нет
Forced : Нет
Текст #1
Идентификатор : 6
Формат : UTF-8
Идентификатор кодека : S_TEXT/UTF8
Идентификатор кодека/Информация : UTF-8 Plain Text
Язык : Russian
Default : Нет
Forced : Нет
Текст #2
Идентификатор : 7
Формат : UTF-8
Идентификатор кодека : S_TEXT/UTF8
Идентификатор кодека/Информация : UTF-8 Plain Text
Язык : English
Default : Нет
Forced : Нет
Меню
00:00:00.000 : en:Crime Scene
00:11:30.231 : en:Out on Bail
00:13:33.145 : en:2 Years Later
00:22:00.110 : en:Old Business
00:27:03.747 : en:The L.D.
00:33:40.893 : en:$1,000,000 Bail
00:44:14.443 : en:Deadly Proposition
00:54:51.788 : en:Confronting Peoples
01:02:57.064 : en:Act of God
01:13:40.499 : en:Confession
01:22:05.295 : en:Shootout
01:29:31.240 : en:Justice?
 
Показать сообщения:    

Текущее время: Сегодня 00:57

Часовой пояс: GMT



Вы не можете начинать темы
Вы не можете отвечать на сообщения
Вы не можете редактировать свои сообщения
Вы не можете удалять свои сообщения
Вы не можете голосовать в опросах
Вы не можете прикреплять файлы к сообщениям
Вы не можете скачивать файлы
Наши партнеры: интернет магазин Ивановского трикотажа textilla.ru