Ивановский Торрент трекер
Яндекс.Погода
 

[Цитировать]
HUNTER

Шарлотта Земляничка. Знакомьтесь: Шарлотта Земляничка / Strawberry Shortcake: Meet Strawberry Shortcake- Страна: США
Жанр: мультфильм, детский, семейный
Продолжительность: 00:45:13
Год выпуска: 2003
Перевод: Профессиональный (дублированный) - Канал "TiJi"
Русские субтитры: нет-Режиссёр: Луис Гассин / Louis Gassin
Роли озвучивали: Сара Хейнк, ДеЖаре Барфилд, Дэниэл Кэнвилд, Нилс Хааланд, Джей Хэнсон, Ханна Кослоски, Сара Кослоски, Кэти Лабоски, Джерри Лондж, Корк Рамер- | Релиз: -Описание: В самом сладком, ярком и ароматном городе живут шесть настоящих подружек: Земляничка, Малинка, Черничка, Лимона, Апельсинка и Сливка. Этим ягодкам не раз придётся проверить свою дружбу на прочность. Маленькие модницы превращают каждый день в весёлую забаву, а неприятности в радостные приключения.-Семпл: http://sendfile.su/1191063-Качество: DVDRip-AVC
Формат: MKV
Видео: 706x480 (4:3) @ 628x480, 23.976 fps, AVC, ~1645 Kbps, 0.202 bits/pixel
Аудио 1: Русский, AC3, 2/0 (L,R) ch, 192 kbps - Дублированный | Канал TiJi
Аудио 2: English, AC3, 2/0 (L,R) ch, 192 kbps
Субтитры: English

MediaInfo

x264 log
x264 [info]: 706x480p 8:9 @ 24000/1001 fps (cfr)
x264 [info]: using SAR=8/9
x264 [info]: using cpu capabilities: MMX2 SSE2Fast SSSE3 SSE4.2 AVX
x264 [info]: profile High, level 4.0
x264 [info]: cabac=1 ref=16 deblock=1:-1:-1 analyse=0x3:0x133 me=umh subme=11 psy=1 fade_compensate=0.00 psy_rd=1.00:0.00 mixed_ref=1 me_range=48 chroma_me=1 trellis=2 8x8dct=1 cqm=0 deadzone=21,11 fast_pskip=0 chroma_qp_offset=-2 threads=12 lookahead_threads=3 sliced_threads=0 nr=0 decimate=1 interlaced=0 bluray_compat=0 constrained_intra=0 fgo=0 bframes=10 b_pyramid=2 b_adapt=2 b_bias=0 direct=3 weightb=1 open_gop=0 weightp=2 keyint=250 keyint_min=23 scenecut=40 intra_refresh=0 rc=crf mbtree=0 crf=17.0000 qcomp=0.60 qpmin=0 qpmax=69 qpstep=4 ip_ratio=1.40 pb_ratio=1.30 aq=1:0.90
x264 [info]: frame I:642 Avg QP:17.24 size: 58512
x264 [info]: frame P:17424 Avg QP:18.24 size: 18013
x264 [info]: frame B:46972 Avg QP:19.40 size: 4638
x264 [info]: consecutive B-frames: 4.5% 5.2% 14.0% 35.3% 20.3% 11.2% 4.7% 2.7% 1.2% 0.4% 0.4%
x264 [info]: mb I I16..4: 3.9% 59.4% 36.8%
x264 [info]: mb P I16..4: 0.8% 8.2% 2.0% P16..4: 28.6% 27.5% 14.0% 2.4% 0.3% skip:16.1%
x264 [info]: mb B I16..4: 0.1% 0.6% 0.2% B16..8: 23.9% 12.0% 3.4% direct: 3.6% skip:56.2% L0:44.2% L1:47.5% BI: 8.3%
x264 [info]: 8x8 transform intra:70.0% inter:56.4%
x264 [info]: direct mvs spatial:100.0% temporal:0.0%
x264 [info]: coded y,uvDC,uvAC intra: 79.4% 94.5% 87.4% inter: 16.1% 25.4% 13.0%
x264 [info]: i16 v,h,dc,p: 38% 21% 12% 29%
x264 [info]: i8 v,h,dc,ddl,ddr,vr,hd,vl,hu: 8% 9% 18% 11% 10% 10% 10% 11% 12%
x264 [info]: i4 v,h,dc,ddl,ddr,vr,hd,vl,hu: 10% 18% 7% 9% 12% 10% 12% 9% 12%
x264 [info]: i8c dc,h,v,p: 48% 27% 15% 10%
x264 [info]: Weighted P-Frames: Y:3.0% UV:2.7%
x264 [info]: ref P L0: 46.4% 4.9% 16.4% 6.0% 5.0% 4.1% 3.6% 2.1% 1.9% 1.7% 1.5% 1.5% 1.4% 1.3% 1.2% 1.0%
x264 [info]: ref B L0: 68.4% 12.1% 5.4% 2.9% 2.1% 1.8% 1.5% 1.1% 0.9% 0.8% 0.7% 0.8% 0.7% 0.5% 0.4%
x264 [info]: ref B L1: 93.3% 6.7%
x264 [info]: kb/s:1678.88
x264 [info]: encoded 65038 frames, 9.85 fps, 1678.88 kb/s, duration 1:50:06.18
GeneralUnique ID : 245399556420169277273585499564692363094 (0xB89E3C437EC4E5E4A8447DE4CF665756)Complete name : E:\VIDEO_Mult\Strawberry.Shortcake-Meet.Strawberry.Shortcake.2003.DVDRip.AVC-rutracker.xfiles.mkvFormat : MatroskaFormat version : Version 4 / Version 2File size : 670 MiBDuration : 45mn 13sOverall bit rate : 2 070 KbpsMovie name : Strawberry.Shortcake-Meet.Strawberry.Shortcake.2003.DVDRip.AVC-rutracker.xfilesEncoded date : UTC 2016-01-08 09:29:33Writing application : mkvmerge v8.3.0 ('Over the Horizon') 64bitWriting library : libebml v1.3.1 + libmatroska v1.4.2Cover : YesAttachments : Cover.jpg / DVD_Cover.jpg / Inlay.jpg / x264.log
VideoID : 1Format : AVCFormat/Info : Advanced Video CodecFormat profile : High@L4Format settings, CABAC : YesFormat settings, ReFrames : 16 framesCodec ID : V_MPEG4/ISO/AVCDuration : 45mn 13sBit rate : 1 645 KbpsWidth : 706 pixelsHeight : 480 pixelsDisplay aspect ratio : 4:3Frame rate mode : ConstantFrame rate : 23.976 (24000/1001) fpsColor space : YUVChroma subsampling : 4:2:0Bit depth : 8 bitsScan type : ProgressiveBits/(Pixel*Frame) : 0.202Stream size : 532 MiB (79%)Title : http://rutracker.org/forum/viewtopic.php?t=5146703Writing library : x264 core 148 r2638kMod 7599210Encoding settings : cabac=1 / ref=16 / deblock=1:-1:-1 / analyse=0x3:0x133 / me=umh / subme=11 / psy=1 / fade_compensate=0.00 / psy_rd=1.00:0.00 / mixed_ref=1 /me_range=48 / chroma_me=1 / trellis=2 / 8x8dct=1 / cqm=0 / deadzone=21,11 / fast_pskip=0 / chroma_qp_offset=-2 / threads=12 / lookahead_threads=3 / sliced_threads=0 / nr=0 /decimate=1 / interlaced=0 / bluray_compat=0 / constrained_intra=0 / fgo=0 / bframes=10 / b_pyramid=2 / b_adapt=2 / b_bias=0 / direct=3 / weightb=1 / open_gop=0 / weightp=2 /keyint=250 / keyint_min=23 / scenecut=40 / intra_refresh=0 / rc=crf / mbtree=0 / crf=17.0000 / qcomp=0.60 / qpmin=0 / qpmax=69 / qpstep=4 / ip_ratio=1.40 / pb_ratio=1.30 / aq=1:0.90Language : EnglishDefault : YesForced : No
Audio #1ID : 2Format : AC-3Format/Info : Audio Coding 3Mode extension : CM (complete main)Format settings, Endianness : BigCodec ID : A_AC3Duration : 45mn 13sBit rate mode : ConstantBit rate : 192 KbpsChannel(s) : 2 channelsChannel positions : Front: L RSampling rate : 48.0 KHzFrame rate : 31.250 fps (1536 spf)Compression mode : LossyStream size : 62.1 MiB (9%)Title : Дубляж | Канал TiJiLanguage : RussianDefault : YesForced : No
Audio #2ID : 3Format : AC-3Format/Info : Audio Coding 3Mode extension : CM (complete main)Format settings, Endianness : BigCodec ID : A_AC3Duration : 45mn 13sBit rate mode : ConstantBit rate : 192 KbpsChannel(s) : 2 channelsChannel positions : Front: L RSampling rate : 48.0 KHzFrame rate : 31.250 fps (1536 spf)Compression mode : LossyStream size : 62.1 MiB (9%)Title : OriginalLanguage : EnglishDefault : NoForced : No
TextID : 4Format : UTF-8Codec ID : S_TEXT/UTF8Codec ID/Info : UTF-8 Plain TextLanguage : EnglishDefault : YesForced : No
Menu00:00:00.000 : en:1. Meet Strawberry Shortcake00:09:55.834 : en:2. Ginger Snap & Orange Blossom00:19:11.334 : en:3. Angel Cake & Honey Pie00:29:51.201 : en:4. Huckleberry Pie & Apple Dumplin's Party

Скриншоты

Показать сообщения:    

Текущее время: 21-Сен 23:57

Часовой пояс: UTC - 1


Вы не можете начинать темы
Вы не можете отвечать на сообщения
Вы не можете редактировать свои сообщения
Вы не можете удалять свои сообщения
Вы не можете голосовать в опросах
Вы не можете прикреплять файлы к сообщениям
Вы не можете скачивать файлы

!ВНИМАНИЕ!
Сайт не предоставляет электронные версии произведений, а занимается лишь коллекционированием и каталогизацией ссылок, присылаемых и публикуемых на форуме нашими читателями. Если вы являетесь правообладателем какого-либо представленного материала и не желаете, чтобы ссылка на него находилась в нашем каталоге, свяжитесь с нами, и мы незамедлительно удалим ее. Файлы для обмена на трекере предоставлены пользователями сайта, и администрация не несет ответственности за их содержание. Просьба не заливать файлы, защищенные авторскими правами, а также файлы нелегального содержания!