Важное объявление!
У Нас Все раздачи мультитрекерные, при нуле пиров в релизах, можете смело вставать на закачку!
 
Автор Сообщение

HUNTER

Стаж:
4 года 11 месяцев
Сообщений:
66009

Репутация: 101

[+] [-]
Вне форума [Профиль] [ЛС]

Шакма / Shakma
Страна: США
Студия: Code Red
Жанр: ужасы
Год выпуска: 1990
Продолжительность: 01:41:09
Перевод: Авторский (одноголосый закадровый) Андрей Дольский
Cубтитры: нет
Оригинальная аудиодорожка: английский
-
Режиссер: Хью Паркс / Hugh Parks, Том Логан / Tom Logan
В ролях: Кристофер Аткинс, Аманда Уайсс, Эри Мейерс, Родди МакДауэлл, Роб Эдвард Моррис, Тре Лофлин, Грег Флауэрс, Энн Кимберли, Донна Джарретт, Робб Моррис
-
Описание: Сбежавший из научной лаборатории бешеный бабуин начинает бродить по зданию исследовательского центра, в котором несколько студентов-медиков не вовремя решили устроить ролевую игру.
КиноПоиск
Тип релиза: BDRemux 1080p
Контейнер: MKV
Видео: MPEG-4 AVC / NTSC 16:9 / 1920x1080 (1,78:1) / 23022 kbps / 23,976 fps / 0.463 bit/pixel / High@L4.1
Аудио 1: Russian / AC3 / 2.0 Ch / 48 kHz / 192 kbps / 16 bit / AVO / Андрей Дольский
Аудио 2: English / DTS-HD Master Audio / 2.0 Ch / 48 kHz / 2029 kbps / 24-bit (DTS Core: 2.0 Ch / 48 kHz / 1509 kbps / 24-bit) / Original
Аудио 3: English / DTS-HD Master Audio / 2.0 Ch / 48 kHz / 2081 kbps / 24-bit (DTS Core: 2.0 Ch / 48 kHz / 1509 kbps / 24-bit) / Commentary
Навигация по главам: есть

MediaInfo

Общее
Уникальный идентификатор : 184495210505477388695706132314689338226 (0x8ACC7C2C4AEC92B1B74D662355777B72)
Полное имя : N:\BDRemux 1080p\Shakma.1990.BDRemux.1080p.mkv
Формат : Matroska
Версия формата : Version 4 / Version 2
Размер файла : 17,7 Гбайт
Продолжительность : 1 ч. 41 м.
Режим общего битрейта : Переменный
Общий поток : 25,1 Мбит/сек
Дата кодирования : UTC 2016-03-19 03:07:23
Программа кодирования : mkvmerge v8.9.0 ('Father Daughter') 64bit
Библиотека кодирования : libebml v1.3.3 + libmatroska v1.4.4
Видео
Идентификатор : 1
Формат : AVC
Формат/Информация : Advanced Video Codec
Профиль формата : High@L4.1
Параметр CABAC формата : Да
Параметр ReFrames формата : 3 кадра
Идентификатор кодека : V_MPEG4/ISO/AVC
Продолжительность : 1 ч. 32 м.
Вид битрейта : Переменный
Битрейт : 23,0 Мбит/сек
Максимальный битрейт : 35,0 Мбит/сек
Ширина : 1920 пикселей
Высота : 1080 пикселей
Соотношение сторон : 16:9
Режим частоты кадров : Постоянный
Частота кадров : 23,976 (24000/1001) кадра/сек
Стандарт вещания : NTSC
Цветовое пространство : YUV
Субдискретизация насыщенности : 4:2:0
Битовая глубина : 8 бит
Тип развёртки : Прогрессивная
Бит/(Пиксели*Кадры) : 0.463
Размер потока : 14,9 Гбайт (84%)
Язык : English
Default : Да
Forced : Нет
Цветовой диапазон : Limited
Основные цвета : BT.709
Характеристики трансфера : BT.709
Коэффициенты матрицы : BT.709
Аудио #1
Идентификатор : 2
Формат : AC-3
Формат/Информация : Audio Coding 3
Расширение режима : CM (complete main)
Параметр Endianness формата : Big
Идентификатор кодека : A_AC3
Продолжительность : 1 ч. 41 м.
Вид битрейта : Постоянный
Битрейт : 192 Кбит/сек
Каналы : 2 канала
Расположение каналов : Front: L R
Частота : 48,0 КГц
Частота кадров : 31,250 кадров/сек (1536 spf)
Метод сжатия : С потерями
Размер потока : 139 Мбайт (1%)
Заголовок : AVO / Андрей Дольский
Язык : Russian
Default : Да
Forced : Нет
Аудио #2
Идентификатор : 3
Формат : DTS
Формат/Информация : Digital Theater Systems
Профиль формата : MA / Core
Режим : 16
Параметр Endianness формата : Big
Идентификатор кодека : A_DTS
Продолжительность : 1 ч. 32 м.
Вид битрейта : Переменный / Постоянный
Битрейт : 2048 Кбит/сек / 1509 Кбит/сек
Каналы : 2 канала
Расположение каналов : Front: L R
Частота : 48,0 КГц
Частота кадров : 93,750 кадра/сек (512 spf)
Битовая глубина : 24 бит
Метод сжатия : Без потерь / Lossy
Размер потока : 1,32 Гбайт (7%)
Заголовок : Original
Язык : English
Default : Нет
Forced : Нет
Аудио #3
Идентификатор : 4
Формат : DTS
Формат/Информация : Digital Theater Systems
Профиль формата : MA / Core
Режим : 16
Параметр Endianness формата : Big
Идентификатор кодека : A_DTS
Продолжительность : 1 ч. 32 м.
Вид битрейта : Переменный / Постоянный
Битрейт : 2048 Кбит/сек / 1509 Кбит/сек
Каналы : 2 канала
Расположение каналов : Front: L R
Частота : 48,0 КГц
Частота кадров : 93,750 кадра/сек (512 spf)
Битовая глубина : 24 бит
Метод сжатия : Без потерь / Lossy
Размер потока : 1,35 Гбайт (8%)
Заголовок : Commentary
Язык : English
Default : Нет
Forced : Нет
Меню
00:00:00.000 : en:00:00:00.000
00:10:01.851 : en:00:10:01.851
00:20:01.534 : en:00:20:01.534
00:30:01.800 : en:00:30:01.800
00:40:01.691 : en:00:40:01.691
00:50:03.000 : en:00:50:03.000
01:00:03.600 : en:01:00:03.600
01:10:04.200 : en:01:10:04.200
01:19:58.919 : en:01:19:58.919
01:30:03.565 : en:01:30:03.565
01:38:32.949 : en:01:38:32.949

_________________
Показать сообщения:    

Текущее время: Сегодня 18:53

Часовой пояс: GMT



Вы не можете начинать темы
Вы не можете отвечать на сообщения
Вы не можете редактировать свои сообщения
Вы не можете удалять свои сообщения
Вы не можете голосовать в опросах
Вы не можете прикреплять файлы к сообщениям
Вы не можете скачивать файлы