Важное объявление!
У Нас Все раздачи мультитрекерные, при нуле пиров в релизах, можете смело вставать на закачку!
 
Автор Сообщение

HUNTER

Стаж:
4 года 9 месяцев
Сообщений:
65070

Репутация: 101

[+] [-]
Вне форума [Профиль] [ЛС]

Шаг навстречу смерти. Шаг навстречу жизни (Серии 1-2 из 2)
Год выпуска: 2013
Страна: Россия
Жанр: Документальный
Продолжительность: 2 х ~00:40:00
Перевод: Не требуется
Описание: Существует ли ген самоубийства? И кто находится в основной группе риска? Можно ли внушить самоубийце мысль о том, что жизнь на самом деле не так уж и плоха, что из любой ситуации реально найти выход? Ответы на эти вопросы попытались найти авторы документального фильма, состоящего из двух частей – "Шаг навстречу смерти" и "Шаг навстречу жизни".
Если верить прогнозам Всемирной организации здравоохранения, сегодня от суицида погибает больше людей, чем из-за войн и убийств вместе взятых. Но – почему? Трагическое отчаяние, молчаливое страдание, гордая отверженность. Может показаться, что самоубийца буквально окружен ореолом этих высоких чувств. На самом деле эксперты утверждают обратное: нет ничего примитивнее попытки покончить с собой. Не так давно волна подростковых суицидов прокатилась по всей России. В Москве, Петербурге, Екатеринбурге, Новгороде дети бросались из окон квартир и с крыш многоэтажек. Таким чудовищным способом они пытались поквитаться с родителями, одноклассниками, учителями.
В ночь с 19 на 20 января 2007 года в Москве произошло одно из самых громких звёздных самоубийств. С балкона своей московской квартиры упал музыкант Мурат Насыров.
Подчеркнутая демонстративность – одна из основных черт роковой игры со смертью. Казалось бы – зачем? Но человек тщательно продумывает свой уход – как шоу, как завершающий спектакль... И не отдаёт себе отчёта в том, что аплодисментов он, скорее всего, уже не услышит.
Серия 1 - Шаг навстречу смерти
Серия 2 - Шаг навстречу жизни

качество: SATRip
формат: AVI
видеокодек: XviD
аудиокодек: MP3
Видео: XviD, 1668 Кбит/с, 704x416, 25fps
Аудио: MP3, 2 ch, 128 Кбит/с, 48kHz
Раздача группы:
Релиз: alexandro17

MI

Общее
Полное имя : E:\Downloads\55\Chag.na.vstrechu.smerti.(19.02.2013)\Chag.na.vstrechu.smerti.1.seriya.(19.02.2013).XviD.avi
Формат : AVI
Формат/Информация : Audio Video Interleave
Размер файла : 516 Мбайт
Продолжительность : 39 м.
Общий поток : 1806 Кбит/сек
Программа кодирования : VirtualDubMod 1.5.10.2 (build 2540/release)
Библиотека кодирования : VirtualDub build 24442/release
Видео
Идентификатор : 0
Формат : MPEG-4 Visual
Профиль формата : Advanced Simple@L5
Параметр BVOP формата : 2
Параметр QPel формата : Нет
Параметр GMC формата : Без точки перехода
Параметр матрицы формата : Default (H.263)
Режим смешивания : Сжатый битовый поток
Идентификатор кодека : XVID
Идентификатор кодека/Подсказка : XviD
Продолжительность : 39 м.
Битрейт : 1668 Кбит/сек
Ширина : 704 пикс.
Высота : 416 пикс.
Соотношение сторон : 1,692
Частота кадров : 25,000 кадр/сек
Цветовое пространство : YUV
Подвыборка цветности : 4:2:0
Битовая глубина : 8 бит
Тип развёртки : Прогрессивная
Метод сжатия : С потерями
Бит/(Пиксели*Кадры) : 0.228
Размер потока : 477 Мбайт (92%)
Библиотека кодирования : XviD 64
Аудио
Идентификатор : 1
Формат : MPEG Audio
Версия формата : Version 1
Профиль формата : Layer 3
Режим : Joint stereo
Расширение режима : MS Stereo
Идентификатор кодека : 55
Идентификатор кодека/Подсказка : MP3
Продолжительность : 39 м.
Вид битрейта : Постоянный
Битрейт : 128 Кбит/сек
Каналы : 2 канала
Частота : 48,0 КГц
Метод сжатия : С потерями
Размер потока : 36,6 Мбайт (7%)
Выравнивание : Соединение по промежуткам
Продолжительность промежутка : 40 мс. (1,00 видеокадр)
Время предзагрузки промежутка : 504 ms
Общее
Полное имя : E:\Downloads\55\Chag.na.vstrechu.smerti.(19.02.2013)\Chag.na.vstrechu.smerti.2.seriya.(19.02.2013).XviD.avi
Формат : AVI
Формат/Информация : Audio Video Interleave
Размер файла : 504 Мбайт
Продолжительность : 39 м.
Общий поток : 1805 Кбит/сек
Программа кодирования : VirtualDubMod 1.5.10.2 (build 2540/release)
Библиотека кодирования : VirtualDub build 24442/release
Видео
Идентификатор : 0
Формат : MPEG-4 Visual
Профиль формата : Advanced Simple@L5
Параметр BVOP формата : 2
Параметр QPel формата : Нет
Параметр GMC формата : Без точки перехода
Параметр матрицы формата : Default (H.263)
Режим смешивания : Сжатый битовый поток
Идентификатор кодека : XVID
Идентификатор кодека/Подсказка : XviD
Продолжительность : 39 м.
Битрейт : 1667 Кбит/сек
Ширина : 704 пикс.
Высота : 416 пикс.
Соотношение сторон : 1,692
Частота кадров : 25,000 кадр/сек
Цветовое пространство : YUV
Подвыборка цветности : 4:2:0
Битовая глубина : 8 бит
Тип развёртки : Прогрессивная
Метод сжатия : С потерями
Бит/(Пиксели*Кадры) : 0.228
Размер потока : 465 Мбайт (92%)
Библиотека кодирования : XviD 64
Аудио
Идентификатор : 1
Формат : MPEG Audio
Версия формата : Version 1
Профиль формата : Layer 3
Режим : Joint stereo
Расширение режима : MS Stereo
Идентификатор кодека : 55
Идентификатор кодека/Подсказка : MP3
Продолжительность : 39 м.
Вид битрейта : Постоянный
Битрейт : 128 Кбит/сек
Каналы : 2 канала
Частота : 48,0 КГц
Метод сжатия : С потерями
Размер потока : 35,7 Мбайт (7%)
Выравнивание : Соединение по промежуткам
Продолжительность промежутка : 40 мс. (1,00 видеокадр)
Время предзагрузки промежутка : 504 ms

Скриншоты


_________________
Показать сообщения:    

Текущее время: Сегодня 22:18

Часовой пояс: GMT



Вы не можете начинать темы
Вы не можете отвечать на сообщения
Вы не можете редактировать свои сообщения
Вы не можете удалять свои сообщения
Вы не можете голосовать в опросах
Вы не можете прикреплять файлы к сообщениям
Вы не можете скачивать файлы