Важное объявление!
У Нас Все раздачи мультитрекерные, при нуле пиров в релизах, можете смело вставать на закачку!
 
Автор Сообщение

HUNTER

Стаж:
4 года 10 месяцев
Сообщений:
65531

Репутация: 101

[+] [-]
Вне форума [Профиль] [ЛС]

Шаг вперед 4 / Step Up Revolution
Информация о фильме
Название: Шаг вперед 4
Оригинальное название: Step Up Revolution
Год выхода: 2012
Жанр: драма, мелодрама, музыка
Режиссер: Скотт Спир
В ролях: Райан Гузман, Кэтрин МакКормик, Миша Гэбриел Хэмилтон, Клеопатра Коулмэн, Стивен Стэннерт, Томми Дьюи, Питер Галлахер, Майкл «Ксено» Лэнджбек, Клаудио Пинто, Николь Дабо
Сюжет фильма: Эмили, дочь влиятельного бизнесмена, приезжает в Майами с намерением стать профессиональной танцовщицей, но влюбляется в Шона — юношу, чья танцевальная труппа устраивает музыкальные флэшмобы. Команда, называющаяся MOB, участвует в конкурсе с внушительным денежным призом, а тем временем отец Эмили намеревается перестроить родной район ребят и переселить тысячи людей. Эмили присоединяется к танцорам и организует протестные мобы, рискуя не осуществить мечту, но сражаясь за нечто более важное.
Продолжительность: 01:38:39
Перевод: Профессиональный (полное дублирование) [Лицензия]
Выпущено: США
Файл
Качество: BDRip [720p]
Видео: 1280x720, 2790 Кбит/сек, 23,976 кадр/сек, AVC, x264, 16:9, 0.126 Бит/[Пиксели*Кадры], 2pass
Аудио: AC-3, 384 Кбит/сек, 6 канала(ов), 48,0 КГц
Размер: 2,19 ГБ
Бюджет Фильма: $33 000 000
Кассовые сборы: $140 470 746
Релиз от:

Скриншоты


MI

Общее
Уникальный идентификатор : 247525499407217216938659248040390016595 (0xBA37AD58714C06B0A3DFAD9FCEB9BE53)
Полное имя : A:РаздачиStep.Up.Revolution.2012.x264.BDRip.720p.DUB.mkv
Формат : Matroska
Версия формата : Version 2
Размер файла : 2,19 Гбайт
Продолжительность : 1 ч. 38 м.
Общий поток : 3175 Кбит/сек
Дата кодирования : UTC 2012-11-30 14:53:29
Программа кодирования : mkvmerge v5.5.0 ('Healer') built on Apr 6 2012 21:43:24
Библиотека кодирования : libebml v1.2.3 + libmatroska v1.3.0
Видео
Идентификатор : 1
Формат : AVC
Формат/Информация : Advanced Video Codec
Профиль формата : High@L3.1
Параметр CABAC формата : Да
Параметр ReFrames формата : 5 кадров
Идентификатор кодека : V_MPEG4/ISO/AVC
Продолжительность : 1 ч. 38 м.
Битрейт : 2790 Кбит/сек
Ширина : 1280 пикселей
Высота : 720 пикселей
Соотношение сторон : 16:9
Частота кадров : 23,976 кадра/сек
Цветовое пространство : YUV
Субдискретизация насыщенности : 4:2:0
Битовая глубина : 8 бит
Тип развёртки : Прогрессивная
Бит/(Пиксели*Кадры) : 0.126
Размер потока : 1,88 Гбайт (86%)
Заголовок : Шаг вперед 4
Библиотека кодирования : x264 core 129 r2230 1cffe9f
Настройки программы : cabac=1 / ref=5 / deblock=1:0:0 / analyse=0x3:0x113 / me=umh / subme=8 / psy=1 / psy_rd=1.00:0.00 / mixed_ref=1 / me_range=16 / chroma_me=1 / trellis=1 / 8x8dct=1 / cqm=0 / deadzone=21,11 / fast_pskip=1 / chroma_qp_offset=-2 / threads=12 / lookahead_threads=2 / sliced_threads=0 / nr=0 / decimate=1 / interlaced=0 / bluray_compat=0 / constrained_intra=0 / bframes=3 / b_pyramid=2 / b_adapt=2 / b_bias=0 / direct=3 / weightb=1 / open_gop=0 / weightp=2 / keyint=240 / keyint_min=23 / scenecut=40 / intra_refresh=0 / rc_lookahead=50 / rc=2pass / mbtree=1 / bitrate=2790 / ratetol=1.0 / qcomp=0.60 / qpmin=10 / qpmax=51 / qpstep=4 / cplxblur=20.0 / qblur=0.5 / ip_ratio=1.40 / aq=1:1.00
Язык : English
Default : Да
Forced : Нет
Аудио
Идентификатор : 2
Формат : AC-3
Формат/Информация : Audio Coding 3
Расширение режима : CM (complete main)
Идентификатор кодека : A_AC3
Продолжительность : 1 ч. 38 м.
Вид битрейта : Постоянный
Битрейт : 384 Кбит/сек
Каналы : 6 каналов
Расположение каналов : Front: L C R, Side: L R, LFE
Частота : 48,0 КГц
Битовая глубина : 16 бит
Метод сжатия : С потерями
Размер потока : 271 Мбайт (12%)
Заголовок : Дубляж
Язык : Russian
Default : Да
Forced : Нет

_________________
Показать сообщения:    

Текущее время: Сегодня 07:20

Часовой пояс: GMT



Вы не можете начинать темы
Вы не можете отвечать на сообщения
Вы не можете редактировать свои сообщения
Вы не можете удалять свои сообщения
Вы не можете голосовать в опросах
Вы не можете прикреплять файлы к сообщениям
Вы не можете скачивать файлы