Ивановский Торрент трекер
Яндекс.Погода
 

[Цитировать]
HUNTER

Шаг вперед - Официальная тренировка танцев / Step Up - The Official Dance Workout-
Год выпуска: 2010
Страна: Англия
Сайт производителя: отсутствует
Тематика: Танцы
Тип материала: обучающее видео-Продолжительность: 02:18:33
Автор: не известен-Язык: английский
Субтитры: отсутствуют-Описание: Даётся 5 больших хип-хоп связок разложенных на танцевальные шаги и части под музыку из фильма "Шаг вперёд": Timbaland ft. Nelly Furtado, T-Pain, Run DMC, Chingy и Ciara ft. Missy Elliot. В видео присутствует танец от Tobias Mead, финалиста Britain's Got Talent. Видео в стиле танцевальной хореографии из фильма. Подойдёт и парням, и девушкам, присутствует секси-связка специально для девчёнок. Каждая связка сначала даётся соло одним человеком медленно, затем с другими членами команды тоже медленно, затем в полную силу и скорость + немного фристайла.
Всё на фонах как из фильма: спорт-зал, на улице, в клуб, под дождём.
-Качество: DVDRip
Формат: AVI
Видео кодек: XviD
Аудио кодек: MP3
Видео: 720x528 (1.36:1), 25 fps, XviD MPEG-4 ~1297 kbps avg, 0.14 bit/pixel
Аудио: 44.100 kHz, MPEG Layer 3, 2 ch, ~112.00 kbps avg-

MediaInfo

Код: copyText_writeLink('this.parentNode.parentNode.nextSibling.nextSibling'); General
Complete name : E:\Обучение\Step Up - The Official Dance Workout.avi
Format : AVI
Format/Info : Audio Video Interleave
File size : 1.37 GiB
Duration : 2h 18mn
Overall bit rate : 1 419 Kbps
Writing application : VirtualDubMod 1.5.4.1 (build 2066/release)
Writing library : VirtualDubMod build 2066/release
Video
ID : 0
Format : MPEG-4 Visual
Format profile : Advanced Simple@L5
Format settings, BVOP : 2
Format settings, QPel : No
Format settings, GMC : No warppoints
Format settings, Matrix : Default (H.263)
Muxing mode : Packed bitstream
Codec ID : XVID
Codec ID/Hint : XviD
Duration : 2h 18mn
Bit rate : 1 297 Kbps
Width : 720 pixels
Height : 528 pixels
Display aspect ratio : 4:3
Frame rate : 25.000 fps
Color space : YUV
Chroma subsampling : 4:2:0
Bit depth : 8 bits
Scan type : Progressive
Compression mode : Lossy
Bits/(Pixel*Frame) : 0.136
Stream size : 1.26 GiB (91%)
Writing library : XviD 1.1.2 (UTC 2006-11-01)
Audio
ID : 1
Format : MPEG Audio
Format version : Version 1
Format profile : Layer 3
Mode : Joint stereo
Mode extension : MS Stereo
Codec ID : 55
Codec ID/Hint : MP3
Duration : 2h 18mn
Bit rate mode : Constant
Bit rate : 112 Kbps
Channel(s) : 2 channels
Sampling rate : 44.1 KHz
Compression mode : Lossy
Delay relative to video : 26ms
Stream size : 111 MiB (8%)
Alignment : Split accross interleaves
Interleave, duration : 40 ms (1.00 video frame)
Interleave, preload duration : 500 ms
- -
Показать сообщения:    

Текущее время: 18-Окт 08:16

Часовой пояс: UTC - 1


Вы не можете начинать темы
Вы не можете отвечать на сообщения
Вы не можете редактировать свои сообщения
Вы не можете удалять свои сообщения
Вы не можете голосовать в опросах
Вы не можете прикреплять файлы к сообщениям
Вы не можете скачивать файлы

!ВНИМАНИЕ!
Сайт не предоставляет электронные версии произведений, а занимается лишь коллекционированием и каталогизацией ссылок, присылаемых и публикуемых на форуме нашими читателями. Если вы являетесь правообладателем какого-либо представленного материала и не желаете, чтобы ссылка на него находилась в нашем каталоге, свяжитесь с нами, и мы незамедлительно удалим ее. Файлы для обмена на трекере предоставлены пользователями сайта, и администрация не несет ответственности за их содержание. Просьба не заливать файлы, защищенные авторскими правами, а также файлы нелегального содержания!