Ивановский Торрент трекер
Яндекс.Погода
 

[Цитировать]
HUNTER

Чёрный котёл / The Black Cauldron
Год выпуска: 1985
Страна: США
Жанр: фэнтези, приключения
Продолжительность: 01:19:49
Перевод1: Профессиональный (полное дублирование)
Перевод2: Авторский (одноголосый, закадровый)(Ю. Живов)
Субтитры: русские, английские
Оригинальная аудиодорожка: английский
Режиссер: Тед Берман, Ричард Рич / Ted Berman, Richard Rich
Роли озвучивали: Грант Бардсли, Сьюзан Шеридан, Джон Хёрт, Фредди Джонс, Найджел Хоторн, Артур Малет, Джон Байнер, Линдсэй Рич
Описание: 25-й классический полнометражный анимационный фильм студии Уолта Диснея поставлен по мотивам серии книг популярного детского писателя Ллойда Александера "Хроники Прайдена", — снят в довольно мрачной фэнтезийной манере, чем выбивается из общей канвы Диснеевский мультфильмов.
В сказочной стране Прайден юноша по имени Т́аран мечтает стать великим воином, хоть и является обычным свинопасом. Но ему приходится отложить свои грёзы, когда его подопечную — волшебную свинью-оракул Хен Вен похищает злой повелитель Рогатый Король.
Он надеется, что свинья покажет ему где спрятан Чёрный Котёл — ужасное оружие, способное вызвать огромную армию воинов нежити.
Т́аран и его новые друзья — упрямая принцесса Айлонви, так называемый министрель Флудур Флэм и приставучее существо по имени Гурги — попытаются найти первыми Чёрный Котёл и спасти мир Прайден от Рогатого Короля.

Подогнанные русские дорожки взяты из: http://rutracker.org/forum/viewtopic.php?t=3246119
Саундтрек

Качество: HDTVRip 720p(SiC)
Формат: MKV
Видео кодек: H.264
Аудио кодек: AC3
Видео: 1280 x 544; 23,976 fps; 4 500 kbps
Аудио1: Русский, AC3 2.0 192 Kbps 48,0 КГц(Дубляж)
Аудио2: Русский, AC3 5.1 384 Kbps 48,0 КГц(Живов)
Аудио3: English, АС3 5.1 384 Kbps 48,0 КГц(Оригинал)
Субтитры: SoftSub (SRT)

MediaInfo

D:\HDFILMS\The.Black.Cauldron.1985.720p.HDTVRip.2xRus.Eng.mkv
General
Unique ID : 208989960730317001370835173787421620640 (0x9D3A0099A940D0F29EB470903723B9A0)
Complete name : D:\HDFILMS\The.Black.Cauldron.1985.720p.HDTVRip.2xRus.Eng.mkv
Format : Matroska
Format version : Version 2
File size : 3.08 GiB
Duration : 1h 19mn
Overall bit rate : 5 516 Kbps
Encoded date : UTC 2012-05-13 14:38:45
Writing application : mkvmerge v5.3.0 ('I could have danced') built on Feb 9 2012 10:38:07
Writing library : libebml v1.2.3 + libmatroska v1.3.0
Video #1
ID : 1
Format : AVC
Format/Info : Advanced Video Codec
Format profile : High@L4.1
Format settings, CABAC : Yes
Format settings, ReFrames : 3 frames
Codec ID : V_MPEG4/ISO/AVC
Duration : 1h 19mn
Bit rate : 4 500 Kbps
Width : 1 280 pixels
Height : 544 pixels
Display aspect ratio : 2.35:1
Frame rate : 23.976 fps
Color space : YUV
Chroma subsampling : 4:2:0
Bit depth : 8 bits
Scan type : Progressive
Bits/(Pixel*Frame) : 0.270
Stream size : 2.48 GiB (81%)
Title : The.Black.Cauldron.1985.720p.HDTV.AC3-5.1.x264-SiC
Writing library : x264 core 68 r1195bm 5d75a9b
Encoding settings : cabac=1 / ref=3 / deblock=1:0:0 / analyse=0x3:0x13 / me=umh / subme=7 / psy_rd=0.0:0.0 / mixed_ref=1
/ me_range=16 / chroma_me=1 / trellis=1 / 8x8dct=1 / cqm=0 / deadzone=21,11 / chroma_qp_offset=0 / threads=1 / thread_queue=1 /
nr=0 / decimate=1 / mbaff=0 / bframes=0 / keyint=250 / keyint_min=25 / scenecut=40 / rc=abr / bitrate=4500 / ratetol=1.0 /
qcomp=0.60 / qpmin=10 / qpmax=51 / qpstep=4 / ip_ratio=1.40 / aq=2:1.00
Default : Yes
Forced : No
Audio #2
ID : 2
Format : AC-3
Format/Info : Audio Coding 3
Mode extension : CM (complete main)
Codec ID : A_AC3
Duration : 1h 19mn
Bit rate mode : Constant
Bit rate : 192 Kbps
Channel(s) : 2 channels
Channel positions : Front: L R
Sampling rate : 48.0 KHz
Bit depth : 16 bits
Compression mode : Lossy
Stream size : 110 MiB (3%)
Title : Dub AC3 2.0 192 kbps
Language : Russian
Default : Yes
Forced : No
Audio #3
ID : 3
Format : AC-3
Format/Info : Audio Coding 3
Mode extension : CM (complete main)
Codec ID : A_AC3
Duration : 1h 19mn
Bit rate mode : Constant
Bit rate : 384 Kbps
Channel(s) : 6 channels
Channel positions : Front: L C R, Side: L R, LFE
Sampling rate : 48.0 KHz
Bit depth : 16 bits
Compression mode : Lossy
Stream size : 219 MiB (7%)
Title : Zhivov AC3 5.1 384 kbps
Language : Russian
Default : No
Forced : No
Audio #4
ID : 4
Format : AC-3
Format/Info : Audio Coding 3
Mode extension : CM (complete main)
Codec ID : A_AC3
Duration : 1h 19mn
Bit rate mode : Constant
Bit rate : 384 Kbps
Channel(s) : 6 channels
Channel positions : Front: L C R, Side: L R, LFE
Sampling rate : 48.0 KHz
Bit depth : 16 bits
Compression mode : Lossy
Delay relative to video : 14ms
Stream size : 219 MiB (7%)
Title : Original AC3 5.1 384 kbps
Language : English
Default : No
Forced : No
Text #5
ID : 5
Format : UTF-8
Codec ID : S_TEXT/UTF8
Codec ID/Info : UTF-8 Plain Text
Language : Russian
Default : Yes
Forced : No
Text #6
ID : 6
Format : UTF-8
Codec ID : S_TEXT/UTF8
Codec ID/Info : UTF-8 Plain Text
Language : English
Default : No
Forced : No

Скриншоты

Показать сообщения:    

Текущее время: 18-Окт 14:02

Часовой пояс: UTC - 1


Вы не можете начинать темы
Вы не можете отвечать на сообщения
Вы не можете редактировать свои сообщения
Вы не можете удалять свои сообщения
Вы не можете голосовать в опросах
Вы не можете прикреплять файлы к сообщениям
Вы не можете скачивать файлы

!ВНИМАНИЕ!
Сайт не предоставляет электронные версии произведений, а занимается лишь коллекционированием и каталогизацией ссылок, присылаемых и публикуемых на форуме нашими читателями. Если вы являетесь правообладателем какого-либо представленного материала и не желаете, чтобы ссылка на него находилась в нашем каталоге, свяжитесь с нами, и мы незамедлительно удалим ее. Файлы для обмена на трекере предоставлены пользователями сайта, и администрация не несет ответственности за их содержание. Просьба не заливать файлы, защищенные авторскими правами, а также файлы нелегального содержания!