Важное объявление!
У Нас Все раздачи мультитрекерные, при нуле пиров в релизах, можете смело вставать на закачку!
Статистика раздачи
Размер:     |    Зарегистрирован:     |    Скачан:     |   
Нет
 
     
 
 
Автор Сообщение

HUNTER

Стаж:
5 лет
Сообщений:
68415

Репутация: 101

[+] [-]
Вне форума [Профиль] [ЛС]

Чёрные дыры - Black Holes
Дата/Год выпуска: 1997
Страна: Австралия
Жанр: Научно-популярный
Продолжительность: 00:55:05
Перевод: Субтитры
Доп. инфо о переводе: автор перевода - Slavnus SpaceDust, редакция субтитров - Anna Riet aka Space Age
Русские субтитры: есть
Формат субтитров: softsub (SRT)
Оригинальная аудиодорожка: английский
Режиссер: Ричард Смит / Richard Smith
Описание:Где-то в нашей галактике... Когда-нибудь в будущем... Космический аппарат с Земли приблизится к наиболее опасному объекту во Вселенной...
Что представляют из себя чёрные дыры и где скрывается сингулярность?
В какую чёрную дыру можно попасть, не превратившись в спагетти?
Учёные-астрофизики ищут ответы в кромешной тьме искажённых пространства и времени.
Сэмпл: http://sendfile.su/1047192
Качество: SatRip
формат: AVI
Видео: XviD, 688x384, 16:9, 1687 kbps, 25 fps
Аудио: MP3, 192 kbps, 48.0 KHz, 2 ch

MediaInfo

GeneralComplete name : D:\Чёрные дыры - Discovery. Black Holes\Black Holes (1997).aviFormat : AVIFormat/Info : Audio Video InterleaveFile size : 744 MiBDuration : 55mn 5sOverall bit rate : 1 888 KbpsWriting application : VirtualDubMod 1.5.4.1 (build 2178/release)Writing library : VirtualDubMod build 2178/release
VideoID : 0Format : MPEG-4 VisualFormat profile : Advanced Simple@L5Format settings, BVOP : 1Format settings, QPel : NoFormat settings, GMC : No warppointsFormat settings, Matrix : CustomCodec ID : XVIDCodec ID/Hint : XviDDuration : 55mn 5sBit rate : 1 687 KbpsWidth : 688 pixelsHeight : 384 pixelsDisplay aspect ratio : 16:9Frame rate : 25.000 fpsColor space : YUVChroma subsampling : 4:2:0Bit depth : 8 bitsScan type : ProgressiveCompression mode : LossyBits/(Pixel*Frame) : 0.255Stream size : 665 MiB (89%)Writing library : XviD 1.2.0SMP (UTC 2006-01-08)
AudioID : 1Format : AC-3Format/Info : Audio Coding 3Mode extension : CM (complete main)Format settings, Endianness : BigCodec ID : 2000Duration : 55mn 5sBit rate mode : ConstantBit rate : 192 KbpsChannel(s) : 2 channelsChannel positions : Front: L RSampling rate : 48.0 KHzBit depth : 16 bitsCompression mode : LossyStream size : 75.7 MiB (10%)Alignment : Split accross interleavesInterleave, duration : 40 ms (1.00 video frame)Interleave, preload duration : 64 ms

Пример субтитров

158
00:15:23,112 --> 00:15:27,712
Когда ядерное топливо Солнца
иссякнет, под собственной тяжестью
159
00:15:27,713 --> 00:15:30,713
Солнце превратится в объект размером с Землю.
160
00:15:30,714 --> 00:15:34,514
Но его плотность составит
100 000 раз больше, чем на Земле.
161
00:15:39,744 --> 00:15:44,344
Однако масса и поэтому гравитация Солнца слишком малы,
162
00:15:44,345 --> 00:15:46,645
чтобы превратиться в черную дыру.
163
00:15:46,746 --> 00:15:50,646
Вместо этого, оно станет белым карликом.
164
00:15:54,470 --> 00:15:57,470
Но когда умирает гигантская звезда,
165
00:15:57,471 --> 00:15:59,671
происходит взрыв.
166
00:16:04,092 --> 00:16:07,592
Мы видим, её внешний взрыв,
называемый сверхновой,
167
00:16:07,593 --> 00:16:10,993
но она таит в себе взрыв,
происходящий внутри.
168
00:16:14,000 --> 00:16:17,300
Ядро подвергается столь сильной гравитации
169
00:16:17,301 --> 00:16:20,101
что все атомы раздавлены и уничтожены,
170
00:16:20,102 --> 00:16:25,402
происходит сверхплотное формирование
шара из элементарных частиц, называемого нейтронами.
171
00:16:25,403 --> 00:16:28,303
Рождается нейтронная звезда.
172
00:16:28,604 --> 00:16:31,604
Ее диаметр составляет всего около 20 км.
173
00:16:34,224 --> 00:16:38,724
Мы знаем, что обычные звезды,
как Солнце, станут белыми карликами.
174
00:16:40,157 --> 00:16:44,457
Мы знаем, что есть нейтронные звёзды,
175
00:16:44,758 --> 00:16:47,858
которые намного тяжелее.
176
00:16:47,859 --> 00:16:50,259
Мы считаем, что их черными дырами.
177
00:16:53,902 --> 00:16:56,602
Согласно теории, если нейтронная звезда,
178
00:16:56,603 --> 00:16:59,203
по крайней мере в три раза тяжелее, чем Солнце,
179
00:16:59,204 --> 00:17:02,504
её нейтроны не могут противостоять гравитации.

_________________
Показать сообщения:    

Текущее время: Сегодня 06:51

Часовой пояс: GMT



Вы не можете начинать темы
Вы не можете отвечать на сообщения
Вы не можете редактировать свои сообщения
Вы не можете удалять свои сообщения
Вы не можете голосовать в опросах
Вы не можете прикреплять файлы к сообщениям
Вы не можете скачивать файлы