Ивановский Торрент трекер
Яндекс.Погода
 

[Цитировать]
димитри37

Чучело
Жанр: драма
Год выпуска: 1983
Продолжительность: 01:02:53 + 00:57:24
Режиссёр: Ролан Быков
В ролях: Кристина Орбакайте, Юрий Никулин, Дмитрий Егоров, Елена Санаева, Светлана Крючкова, Ролан Быков, Павел Санаев, Андрей Ломов, Николай Манвелов, Марина Мартанова, Анна Толмачева, Ксения Филиппова, Константин Чеховский, Олег Быков, Дмитрий Кружилин, Маша Артёмова, Антонина Вольская, Ольга Токарева, Елена Вольская, Олег Штефанко, Олег Осетинский
Описание: В обычную школу в обычном провинциальном городке приходит новенькая, Лена Бессольцева. Она поселяется у деда, Николая Николаевича, бывшего военного, коллекционера картин, которого здесь недолюбливают: слишком замкнутую жизнь ведет, на всём экономит, а для чего, почему - окружающим непонятно. Непонятное же всегда подозрительно. Естественно, и на внучку сразу же падает тень. Тем более, что в классе все роли уже распределены: есть лидеры, есть красавицы, есть отличники, есть придурки. И когда один из "достойнейших" совершает подлость, свалить вину за нее проще всего на новенькую, а затем - проучить, напугать, подчинить. Ей дадут прозвище "чучело"...
Доп. информация: Премьера - 14 сентября 1984 года.

Исходник (DVD-9)
Качество видео: DVDRip-AVC
Формат видео: MKV

Видео:

1 серия - AVC (H.264), 718x438@1021x438 (2,35:1), 25 fps, 2185 kbps
2 серия - AVC (H.264), 720x438@1024x438 (2,35:1), 25 fps, 2185 kbps

Аудио:

1 серия - Оригинал: 48 kHz, АC-3, 6 ch, 448 kbps
2 серия - Оригинал: 48 kHz, АC-3, 6 ch, 384 kbps

MediaInfo

1-я серия

Общее
Уникальный идентификатор : 182248543421014418506892856889325393162 (0x891BCAEF0353C4C18A24F0E0AE68150A)
Полное имя : D:\Фильмы\CHUCHELO\Чучело (1983)\01. Чучело (1983).mkv
Формат : Matroska
Версия формата : Version 4 / Version 2
Размер файла : 1,16 Гбайт
Продолжительность : 1 ч. 2 м.
Общий поток : 2635 Кбит/сек
Дата кодирования : UTC 2013-04-03 13:39:38
Программа кодирования : mkvmerge v6.1.0 ('Old Devil') built on Mar 2 2013 14:32:37
Библиотека кодирования : libebml v1.3.0 + libmatroska v1.4.0
Видео
Идентификатор : 1
Формат : AVC
Формат/Информация : Advanced Video Codec
Профиль формата : High@L4.1
Параметр CABAC формата : Да
Параметр ReFrames формата : 6 кадров
Идентификатор кодека : V_MPEG4/ISO/AVC
Продолжительность : 1 ч. 2 м.
Битрейт : 2185 Кбит/сек
Ширина : 718 пикселей
Высота : 438 пикселей
Соотношение сторон : 2,35:1
Соотношение сторон в оригинале : 2,35:1
Частота кадров : 25,000 кадров/сек
Цветовое пространство : YUV
Субдискретизация насыщенности : 4:2:0
Битовая глубина : 8 бит
Тип развёртки : Прогрессивная
Бит/(Пиксели*Кадры) : 0.278
Размер потока : 960 Мбайт (81%)
Библиотека кодирования : x264 core 130 r2273 b3065e6
Настройки программы : cabac=1 / ref=6 / deblock=1:0:0 / analyse=0x3:0x133 / me=umh / subme=9 / psy=1 / psy_rd=1.00:0.00 / mixed_ref=1 / me_range=36 / chroma_me=1 / trellis=2 / 8x8dct=1 / cqm=0 / deadzone=21,11 / fast_pskip=1 / chroma_qp_offset=-2 / threads=3 / lookahead_threads=1 / sliced_threads=0 / nr=0 / decimate=1 / interlaced=0 / bluray_compat=0 / constrained_intra=0 / bframes=9 / b_pyramid=2 / b_adapt=2 / b_bias=0 / direct=3 / weightb=1 / open_gop=0 / weightp=2 / keyint=250 / keyint_min=25 / scenecut=40 / intra_refresh=0 / rc_lookahead=60 / rc=2pass / mbtree=1 / bitrate=2185 / ratetol=1.0 / qcomp=0.60 / qpmin=0 / qpmax=69 / qpstep=4 / cplxblur=20.0 / qblur=0.5 / ip_ratio=1.40 / aq=1:1.00
Язык : English
Default : Да
Forced : Нет
Аудио
Идентификатор : 2
Формат : AC-3
Формат/Информация : Audio Coding 3
Расширение режима : CM (complete main)
Параметр Endianness формата : Big
Идентификатор кодека : A_AC3
Продолжительность : 1 ч. 2 м.
Вид битрейта : Постоянный
Битрейт : 448 Кбит/сек
Каналы : 6 каналов
Расположение каналов : Front: L C R, Side: L R, LFE
Частота : 48,0 КГц
Битовая глубина : 16 бит
Метод сжатия : С потерями
Размер потока : 202 Мбайт (17%)
Язык : Russian
Default : Да
Forced : Нет

2-я серия

Общее
Уникальный идентификатор : 220524618915090165822961990655517761059 (0xA5E77F28039746D29BD919BDCD999E23)
Полное имя : D:\Фильмы\CHUCHELO\Чучело (1983)\02. Чучело (1983).mkv
Формат : Matroska
Версия формата : Version 4 / Version 2
Размер файла : 1,03 Гбайт
Продолжительность : 57 м.
Общий поток : 2571 Кбит/сек
Дата кодирования : UTC 2013-04-03 13:45:52
Программа кодирования : mkvmerge v6.1.0 ('Old Devil') built on Mar 2 2013 14:32:37
Библиотека кодирования : libebml v1.3.0 + libmatroska v1.4.0
Видео
Идентификатор : 1
Формат : AVC
Формат/Информация : Advanced Video Codec
Профиль формата : High@L4.1
Параметр CABAC формата : Да
Параметр ReFrames формата : 6 кадров
Идентификатор кодека : V_MPEG4/ISO/AVC
Продолжительность : 57 м.
Битрейт : 2185 Кбит/сек
Ширина : 720 пикселей
Высота : 438 пикселей
Соотношение сторон : 2,35:1
Соотношение сторон в оригинале : 2,35:1
Частота кадров : 25,000 кадров/сек
Цветовое пространство : YUV
Субдискретизация насыщенности : 4:2:0
Битовая глубина : 8 бит
Тип развёртки : Прогрессивная
Бит/(Пиксели*Кадры) : 0.277
Размер потока : 877 Мбайт (83%)
Библиотека кодирования : x264 core 130 r2273 b3065e6
Настройки программы : cabac=1 / ref=6 / deblock=1:0:0 / analyse=0x3:0x133 / me=umh / subme=9 / psy=1 / psy_rd=1.00:0.00 / mixed_ref=1 / me_range=36 / chroma_me=1 / trellis=2 / 8x8dct=1 / cqm=0 / deadzone=21,11 / fast_pskip=1 / chroma_qp_offset=-2 / threads=3 / lookahead_threads=1 / sliced_threads=0 / nr=0 / decimate=1 / interlaced=0 / bluray_compat=0 / constrained_intra=0 / bframes=9 / b_pyramid=2 / b_adapt=2 / b_bias=0 / direct=3 / weightb=1 / open_gop=0 / weightp=2 / keyint=250 / keyint_min=25 / scenecut=40 / intra_refresh=0 / rc_lookahead=60 / rc=2pass / mbtree=1 / bitrate=2185 / ratetol=1.0 / qcomp=0.60 / qpmin=0 / qpmax=69 / qpstep=4 / cplxblur=20.0 / qblur=0.5 / ip_ratio=1.40 / aq=1:1.00
Язык : English
Default : Да
Forced : Нет
Аудио
Идентификатор : 2
Формат : AC-3
Формат/Информация : Audio Coding 3
Расширение режима : CM (complete main)
Параметр Endianness формата : Big
Идентификатор кодека : A_AC3
Продолжительность : 57 м.
Вид битрейта : Постоянный
Битрейт : 384 Кбит/сек
Каналы : 6 каналов
Расположение каналов : Front: L C R, Side: L R, LFE
Частота : 48,0 КГц
Битовая глубина : 16 бит
Метод сжатия : С потерями
Размер потока : 158 Мбайт (15%)
Default : Да
Forced : Нет

Скриншоты

1-я серия

2-я серия

Показать сообщения:    

Текущее время: 23-Окт 07:12

Часовой пояс: UTC - 1


Вы не можете начинать темы
Вы не можете отвечать на сообщения
Вы не можете редактировать свои сообщения
Вы не можете удалять свои сообщения
Вы не можете голосовать в опросах
Вы не можете прикреплять файлы к сообщениям
Вы не можете скачивать файлы

!ВНИМАНИЕ!
Сайт не предоставляет электронные версии произведений, а занимается лишь коллекционированием и каталогизацией ссылок, присылаемых и публикуемых на форуме нашими читателями. Если вы являетесь правообладателем какого-либо представленного материала и не желаете, чтобы ссылка на него находилась в нашем каталоге, свяжитесь с нами, и мы незамедлительно удалим ее. Файлы для обмена на трекере предоставлены пользователями сайта, и администрация не несет ответственности за их содержание. Просьба не заливать файлы, защищенные авторскими правами, а также файлы нелегального содержания!