Важное объявление!
У Нас Все раздачи мультитрекерные, при нуле пиров в релизах, можете смело вставать на закачку!
Статистика раздачи
Размер:     |    Зарегистрирован:     |    Скачан:     |   
Нет
 
     
 
 
Автор Сообщение

HUNTER

Стаж:
5 лет
Сообщений:
67947

Репутация: 101

[+] [-]
Вне форума [Профиль] [ЛС]

Чужой лес / Timber Falls
«Prey for the victims»

Страна: США
Жанр: ужасы, триллер
Год выпуска: 2007
Продолжительность: 01:36:27
Перевод: Профессиональный (дублированный)
Cубтитры: русские, английские
Оригинальная аудиодорожка: английский
-
Режиссер: Тони Гиглио / Tony Giglio
В ролях: Джош Рэндэлл, Брианна Браун, Ник Сирси, Бет Бродерик, Саша Роузманн, Т.У. Лешнер, Бренден Р. Морган, Райан МакГи, Карл Бресслер, Дэбби Джаффе
-
Описание: Решив устроить себе увлекательный отдых, Майк и Шерил отправляются в горы. Но долго наслаждаться отдыхом им не суждено: утром Шерил бесследно исчезает. Разыскивая любимую, Майк отправляется вглубь леса, где прекрасная природа, так радовавшая вчера, вдруг превращается во враждебное и полное опасностей место. Он буквально физически начинает ощущать чье-то присутствие. Неожиданно получив сильный удар по голове, Майк теряет сознание. Очнувшись связанным по рукам и ногам в сыром подвале, он видит, распятую на деревянном кресте, Шерил...

Тип релиза: BDRemux 1080i
Контейнер: MKV
Видео: MPEG-4 AVC / PAL 16:9 / 1920x1080 (1,78:1) / 25755 kbps / 25 fps / 0.502 bit/pixel / High@L4.1
Аудио 1: Russian / DTS / 5.1 Ch / 48 kHz / 768 kbps / 24 bit / DUB
Аудио 2: English / DTS-HD Master Audio / 5.1 Ch / 48 kHz / 1505 kbps / 16-bit (DTS Core: 5.1 Ch / 48 kHz / 768 kbps / 16-bit) / Original
Формат субтитров: softsub (SRT)
Навигация по главам: есть

MediaInfo

Общее
Уникальный идентификатор : 241722999270384898973941211158181673007 (0xB5DA280046580ADE8B84658BDA61782F)
Полное имя : N:\BDRemux 1080i\Timber Falls.2007.BDRemux.1080i.mkv
Формат : Matroska
Версия формата : Version 4 / Version 2
Размер файла : 18,9 Гбайт
Продолжительность : 1 ч. 36 м.
Общий поток : 28,0 Мбит/сек
Дата кодирования : UTC 2016-04-04 15:20:24
Программа кодирования : mkvmerge v9.0.1 ('Obstacles') 64bit
Библиотека кодирования : libebml v1.3.3 + libmatroska v1.4.4
Видео
Идентификатор : 1
Формат : AVC
Формат/Информация : Advanced Video Codec
Профиль формата : High@L4.1
Параметр CABAC формата : Да
Параметр ReFrames формата : 4 кадра
Параметр GOP формата : M=3, N=24
Идентификатор кодека : V_MPEG4/ISO/AVC
Продолжительность : 1 ч. 36 м.
Вид битрейта : Постоянный
Битрейт : 26,0 Мбит/сек
Ширина : 1920 пикселей
Высота : 1080 пикселей
Соотношение сторон : 16:9
Режим частоты кадров : Постоянный
Частота кадров : 25,000 кадров/сек
Стандарт вещания : PAL
Цветовое пространство : YUV
Субдискретизация насыщенности : 4:2:0
Битовая глубина : 8 бит
Тип развёртки : MBAFF
Метод сохранения типа развёртки : Чередующиеся поля
Порядок развёртки : Верхнее поле первое
Бит/(Пиксели*Кадры) : 0.502
Размер потока : 17,4 Гбайт (92%)
Язык : English
Default : Да
Forced : Нет
Цветовой диапазон : Limited
Основные цвета : BT.709
Характеристики трансфера : BT.709
Коэффициенты матрицы : BT.709
Аудио #1
Идентификатор : 2
Формат : DTS
Формат/Информация : Digital Theater Systems
Режим : 16
Параметр Endianness формата : Big
Идентификатор кодека : A_DTS
Продолжительность : 1 ч. 36 м.
Вид битрейта : Постоянный
Битрейт : 755 Кбит/сек
Каналы : 6 каналов
Расположение каналов : Front: L C R, Side: L R, LFE
Частота : 48,0 КГц
Частота кадров : 93,750 кадра/сек (512 spf)
Битовая глубина : 24 бит
Метод сжатия : С потерями
Размер потока : 520 Мбайт (3%)
Заголовок : Дублированный
Язык : Russian
Default : Да
Forced : Нет
Аудио #2
Идентификатор : 3
Формат : DTS
Формат/Информация : Digital Theater Systems
Профиль формата : MA / Core
Режим : 16
Параметр Endianness формата : Big
Идентификатор кодека : A_DTS
Продолжительность : 1 ч. 36 м.
Вид битрейта : Переменный / Постоянный
Битрейт : 1536 Кбит/сек / 768 Кбит/сек
Каналы : 6 каналов
Расположение каналов : Front: L C R, Side: L R, LFE
Частота : 48,0 КГц
Частота кадров : 93,750 кадра/сек (512 spf)
Битовая глубина : 16 бит
Метод сжатия : Без потерь / Lossy
Размер потока : 1,01 Гбайт (5%)
Заголовок : Original
Язык : English
Default : Нет
Forced : Нет
Текст #1
Идентификатор : 4
Формат : UTF-8
Идентификатор кодека : S_TEXT/UTF8
Идентификатор кодека/Информация : UTF-8 Plain Text
Продолжительность : 1 ч. 31 м.
Битрейт : 66 бит/сек
Count of elements : 780
Размер потока : 44,5 Кбайт (0%)
Заголовок : DVD
Язык : Russian
Default : Нет
Forced : Нет
Текст #2
Идентификатор : 5
Формат : UTF-8
Идентификатор кодека : S_TEXT/UTF8
Идентификатор кодека/Информация : UTF-8 Plain Text
Продолжительность : 1 ч. 26 м.
Битрейт : 37 бит/сек
Count of elements : 807
Размер потока : 23,5 Кбайт (0%)
Заголовок : Original
Язык : English
Default : Нет
Forced : Нет
Меню
00:00:00.000 : en:00:00:00.000
00:08:23.600 : en:00:08:23.600
00:16:53.520 : en:00:16:53.520
00:25:19.000 : en:00:25:19.000
00:32:41.000 : en:00:32:41.000
00:40:49.120 : en:00:40:49.120
00:48:49.200 : en:00:48:49.200
00:58:20.760 : en:00:58:20.760
01:04:54.680 : en:01:04:54.680
01:14:27.240 : en:01:14:27.240
01:19:56.600 : en:01:19:56.600
01:29:36.000 : en:01:29:36.000

_________________
Показать сообщения:    

Текущее время: Сегодня 13:00

Часовой пояс: GMT



Вы не можете начинать темы
Вы не можете отвечать на сообщения
Вы не можете редактировать свои сообщения
Вы не можете удалять свои сообщения
Вы не можете голосовать в опросах
Вы не можете прикреплять файлы к сообщениям
Вы не можете скачивать файлы