Важное объявление!
У Нас Все раздачи мультитрекерные, при нуле пиров в релизах, можете смело вставать на закачку!
Статистика раздачи
Размер:     |    Зарегистрирован:     |    Скачан:     |   
Нет
 
     
 
 
Автор Сообщение

димитри37

Стаж:
4 года 5 месяцев
Сообщений:
1236

Репутация: 127

[+] [-]
Вне форума [Профиль] [ЛС]

Чужой: Антология / Alien Anthology -Год выхода: 1979/1986/1992/1997
Жанр: ужасы, фантастика, боевик, триллер
Режиссер: Ридли Скотт, Джеймс Кэмерон, Дэвид Финчер, Жан-Пьер Жёне
Выпущено: США, Великобритания
Продолжительность: 01:55:49 | 02:34:26 | 02:24:52 | 01:56:08--Чужой / Alien (1979)«В космосе твой крик никто не услышит...»-
Год выпуска: 1979
Страна: США, Великобритания
Жанр: ужасы, фантастика
Продолжительность: 01:55:49
Перевод:
Дублированный
Многоголосный (LDV)
Многоголосный (Киномания)
Многоголосный (Позитив-Мультимедиа)
Авторский (Гаврилов Андрей)
Авторский (Пучков Дмитрий)
Авторский (Живов Юрий)
Cубтитры: русские, украинские, английские
Навигация по главам: есть
Режиссер: Ридли Скотт / Ridley Scott
Сценарий: Дэн О’Бэннон / Dan O'Bannon, Рональд Шусетт / Ronald Shusett
Продюсер: Гордон Кэрролл / Gordon Carroll, Дэвид Гайлер / David Giler, Уолтер Хилл / Walter Hill, Айвор Пауэлл / Ivor Powell, Рональд Шусетт / Ronald Shusett
Оператор: Дерек Ванлинт / Derek Vanlint
Композитор: Джерри Голдсмит / Jerry Goldsmith
В ролях: Сигурни Уивер (Ripley,), Том Скеррит (Dallas), Вероника Картрайт (Lambert), Гарри Дин Стэнтон (Brett), Джон Хёрт (Kane), Иэн Холм (Ash), Яфет Котто (Parker), Боладжи Бадеджо (Alien), Хелен Хортон (Mother, озвучка), Эдди Пауэлл (Alien, в титрах не указан)
Дублёры: Ольга Зубкова (Ripley), Андрей Симанов (Dallas), Людмила Ильина (Lambert), Олег Форостенко (Brett), Денис Беспалый (Kane), Олег Куценко (Ash), Александр Груздев (Parker), Владимир Антоник-Описание: В далеком будущем возвращающийся на Землю грузовой космический корабль перехватывает исходящий с неизвестной планеты неопознанный сигнал. Экипаж принимает решение совершить посадку и разобраться, в чем дело. Оказавшись на планете, астронавты повсюду обнаруживают неопознанные предметы, по виду напоминающие гигантские коконы...-Рейтинг
kinopoisk.ru: 7.956 (29 646)
imdb.com: 8.50 (228 811)
MPAA: R - Лицам до 17 лет обязательно присутствие взрослого-Качество: BDRip (tRuAVC)
Исходник: BD-Remux [HDClub]. спасибо sergey_n
Формат: Matroska
Видеокодек: AVC
Аудиокодек: AC3
Видео: 1280x544 (2.35:1); 4497 Kbps; 23,976 fps
Аудио : Russian; AC3; 448 Kbps; CBR; 6 ch; Дубляж
Аудио : English; AC3; 448 Kbps; CBR; 6 ch; Original
Субтитры: Russian (Blu-ray CEE), Ukrainian, Russian (Киномания), Russian (расш. моменты к переводу Пучкова), English, English (Комментарии), English (Комментарии)
Отдельно:
Аудио : Russian; AC3; 448 Kbps; CBR; 6 ch; LDV
Аудио : Russian; AC3; 448 Kbps; CBR; 6 ch; Киномания
Аудио : Russian; AC3; 448 Kbps; CBR; 6 ch; Позитив-Мультимедиа
Аудио : Russian; AC3; 448 Kbps; CBR; 6 ch; Гаврилов
Аудио : Russian; AC3; 448 Kbps; CBR; 6 ch; Пучков
Аудио : Russian; AC3; 448 Kbps; CBR; 6 ch; Живов-

Знаете ли Вы, что...

  • Ридли Скотт признавался в многочисленных интервью, что он хотел снять более мрачный фильм с фатальной развязкой. В частности, картина должна была заканчиваться сценой откусывания головы Рипли. Но кинокомпания «20th Century Fox» не пошла на поводу у режиссера и предложила смягчить окончание.
  • Ридли Скотт занял режиссерское кресло после того, как его покинули четыре предыдущих кандидата.
  • В первом варианте сценария Рипли была мужчиной.
  • Роль Рипли изначально предлагалась Веронике Катрайт, но впоследствии выбор пал на Сигурни Уивер. Впрочем, Вероника также получила в проекте одну из главных ролей.
  • Многие диалоги являются импровизацией.
  • В костюм «чужого» мог облачиться Питер Мэйхью, исполнитель роли Чубаки в «Звездных Войнах». Рост этого британского гиганта составляет 2,21 м. В итоге эта роль досталась Боладжи Бадеджо (2,18 м).
  • Для съемок было изготовлено три варианта «Чужих»: сама модель и два костюма, в которые облачались статисты.
  • Отснятые сцены, не вошедшие в театральную версию, но представленные в режиссерской: - Рипли обнаруживает Далласа и Брэтта, завернутых в коконы. Даллас практически полностью покрыт личинками и умоляет Рипли прикончить его. Рипли удовлетворяет просьбу товарища и сжигает его огнеметом; - Рипли и Ламберт обсуждают, является ли Эш девственником. Неанглоязычные версии картины выходили в прокат под названием «Инопланетянин: Восьмой пассажир».
  • Некий писатель А. Е. Ван Фогт обвинил создателей картины в плагиате, утверждая, что они украли его идею, описанную в книгах «Discord in Scarlet» (1939 г.) и «Voyage of the Space Beagle» (1950 г.). Но судебный процесс он выиграть не сумел.
  • По сценарию между Рипли и Далласом должна была пройти постельная сцена, но ее решили не снимать.
  • Вероника Картрайт после выхода картины на экраны призналась, что в сцене, где ноги ее героини опутывает хвост «чужого», на самом деле ноги не ее. Они принадлежат Гарри Дину Стэнтону (Брэтт), и происходит данное событие при съемках абсолютно другой сцены.
  • В первых набросках художника пришелец был снабжен глазами, но для съемок картины было принято решение избавиться от них, дабы придать существу более зловещий вид.
  • Ни одна из кинокомпаний не хотела браться за этот проект, посчитав его слишком жестоким и кровавым. Однако вскоре нашелся смельчак по имени Уолтер Хилл, представляющий интересы компании «20th Century Fox». Тем не менее, он тоже внес свою лепту в судьбу картины, посчитав первый вариант сценария чересчур мрачным. Ридли Скотт был вынужден удалить слишком жестокие сцены.
  • «Сырой» вариант картины длился 192 минуты (итоговая версия намного короче — 117 минут).
  • Йен Холм, исполнитель роли Эша, признался, что при съемках гибели своего героя, муляж головы персонажа был нашпигован спагетти и луковыми кольцами.
  • Уолтер Хилл и Дэвид Гилер изменили имена всех персонажей в сценарии Дэна О’Бэннона и Рональда Шусетта. В сценарии О’Бэннона и Шусетта герои были прописаны таким образом, что их могли сыграть как мужчины, так и женщины. По словам сценаристов, они писали роль Рипли исключительно как мужскую.
  • Ханс Руди Гигер создал несколько моделей чужих, из которых был выбран окончательный вариант.
  • На одном из этапов разработки проекта создатели фильма подумывали сделать тело чужого полупрозрачным.
  • Известнейший слух – никто из актеров, за исключением Джона Хёрта, не знал, что случится при «рождении» чужого – по большому счету, правдив. Актерам лишь в общих чертах, не вдаваясь в подробности, рассказали о том, что будет происходить в данной сцене: например, Вероника Картрайт никак не ожидала, что её обрызгают кровью.
  • Одна из книг Джозефа Конрада называется «Ностромо».
  • По словам Дэна О’Бэннона, идея, вынашивания чужеродного организма в человеческом теле, пришла ему в голову после того, как он узнал, что осы дорожные откладывают свои личинки в брюшках пауков. Однако, данный вид ос откладывает яйца на теле своей жертвы, а не внутри неё. Стоит добавить, что отдельные виды ос всё же откладывают яйца в телах других организмов: например, осы ихневмон и осы бракониды. Первые откладывают яйца в различных жуков, вторые – в определенные виды гусениц. В обоих случаях организм-носитель погибает при рождении осы.
  • Для сцены внутри инопланетного космического корабля было создано 130 яиц чужих.
  • Восемнадцать лет спустя после выхода фильма на экраны Х.Р. Гигер подаст в суд на студию «20th Century Fox» за то, что его имя отсутствовало в титрах к «Чужому: Воскрешение» (1997), и выиграет дело.
  • Режиссерская версия фильма, вышедшая в 2003 году, стала возможной благодаря 100 коробкам с пленками картины, обнаруженным на одном из складов студии.
  • Детали для декораций внутренних помещений «Ностромо» были найдены на кладбище самолетов.
  • В сцене, где команда «Ностромо» просыпается после гиперсна, груди Вероники Картрайт и Сигурни Уивер были покрыты киперной лентой.
  • Изначально Джон Финч должен был сыграть Кейна, но в первый день съёмок у него случился приступ диабета. Ридли Скотт знал, что Джон Хёрт не задействован на других проектах и предложил ему роль. Уже на следующий день Хёрт приступил к съёмкам.
  • Для того чтобы создать эффект резкого ускорения «Ностромо», несколько человек трясли и раскачивали кресла, в которых сидели актеры.
  • Когда таможенники увидели модели фэйсхаггеров Х.Р. Гигера, то они были настолько шокированы, что немедленно задержали его на американской границе. Дэну О’Бэннону пришлось приехать в аэропорт Лос-Анджелеса и объяснить властям, что это – модели для фильма ужасов.
  • Сцена «рождения» чужого была снята с первого дубля, используя четыре камеры.
  • Для того чтобы испугать кота Джонса, перед ним посадили немецкую овчарку.
  • Сцена, в которой Даллас преследует чужого в вентиляционных шахтах, а остальная команда корабля предупреждает его, чтобы он поскорее покинул вентиляционную систему, была снята за один день.
  • Рон Кобб, делавший наброски для фильма, предложил, чтобы у чужого в качестве крови была кислота.
  • Джерри Голдсмит был в ярости, узнав, что Ридли Скотт и монтажер фильма Терри Роулингс существенно изменили его музыку, написанную специально для фильма.
  • Эш отсутствовал в первой версии сценария Дэна О’Бэннона.
  • Подкрашенная вода использовалась в качестве «крови» Эша.
  • Дэн О’Бэннон и Х.Р. Гигер познакомились на разработке «Дюны» Алехандро Ходоровси – проекта, который так и не состоялся.
  • Сигурни Уивер была утверждена на роль Рипли, после того как продюсеры увидели пробы актрисы, на которых она произносила финальный монолог на борту спасательной шлюпки «Ностромо».
  • Идея фильма возникла у Дэна О’Бэннона, после того как он разочаровался реализацией своего первого сценария, «Темная звезда» (1974), который поставил Джон Карпентер. О’Бэннон писал сценарий «Чужого» с прицелом на гораздо больший бюджет, чем был у «Темной звезды», и значительно расширив хоррор-элемент.
  • Еще до начала работы над сценарием к «Чужому» Рональд Шусетт приобрел права на рассказ Филипа Дика «We Can Remember It for You Wholesale» (который впоследствии трансформируется в сценарий к картине «Вспомнить всё» (1990)) и попросил Дэна О’Бэннона помочь ему адаптировать произведение известного фантаста для большего экрана. В то же самое время О’Бэннон придумал историю об инопланетянине на космическом корабле. Новоиспеченные партнеры решили сначала написать сценарий об инопланетном монстре, т.к., по их мнению, данный проект было легче реализовать.
  • Первоначальное название картины – «Star Beast».
  • Уолтер Хилл и Дэвид Гилер предложили идею того, чтобы Эш был роботом.
  • В первые шесть минут фильма нет диалогов.
  • Слово «fuck» произносится по ходу действия фильма 5 раз (Рипли говорит «fuck» четыре раза за фильм).
  • Студия «20th Century Fox» увеличила бюджет фильма в два раза (с $4.2 миллионов до $8.4), после того как Ридли Скотт показал свои раскадровки.
  • Ридли Скотт с радостью согласился поставить фильм, т.к. разработка предыдущего проекта, на котором он работал, зашла в тупик.
  • Три модели «Ностромо» различной длины и массы были построены для съёмок фильма.
  • Продюсеры третьесортного фильма ужасов «It! The Terror from Beyond Space» (1958) подумывали подать на авторов «Чужого» в суд за плагиат, но не стали этого делать.
  • Изначально космический корабль должен был называться «Снарк» (фантастическое животное из поэмы Л. Кэрролла «Охота на Снарка» – прим.), затем название изменили на «Левиафан» (морское чудовище, описанное в Библии; громадина, плавучая махина (о судне) – прим.). В конце концов, было решено остановиться на «Ностромо» (название корабля повторяет название книги Джозефа Конрада. На итальянском «nostromo» означает «боцман» - прим.).
  • Имя компьютера «Ностромо» - «Мать». Имя компьютера на корабле в «Чужом: Воскрешение» (1997) – «Отец».
  • Два тридцатисекундных обратных отсчета в фильме продолжаются соответственно 36 и 37 секунд.
  • Вероника Картрайт узнала о том, что она не получила главную роль только тогда, когда её попросили прийти на съёмочную площадку для примерки нескольких костюмов её героини, Ламберт.
  • Длина «Ностромо» составляет 800 футов (примерно 245 метров), в то время как он транспортирует груз длиной в полторы мили (примерно 2,4 километра).
  • Космические костюмы, в которые одеты Том Скерритт, Джон Хёрт и Вероника Картрайт, были чрезвычайно неудобны, сделаны из нейлона и не пропускали воздух. Актеры, одетые в такие костюмы, изнывали от невероятной жары и очень часто падали в обморок. На съёмках постоянно присутствовала медсестра, которая следила за физическим состоянием трех актеров, и оказывала им первую помощь. Только после того, как для съёмок одной из сцен в костюмы одели детей Ридли Скотта и Дерека Ванлинта (оператор), и они также потеряли сознание, были внесены некоторые изменения в дизайн костюмов.
  • В начале съёмок Ридли Скотту приходилось каждый день выслушивать наставления девяти продюсеров, которые постоянно жаловались на то, что Ридли уж слишком много времени тратит на съёмки той или иной сцены.
  • В первый день съёмок сцен с участием кота Джонса, кожа Сигурни Уивер покрылась сыпью. Сигурни испугалась, что у неё аллергия на кошек, и её вполне могут уволить, т.к. для студии было намного проще заменить никому неизвестную актрису, чем найти четырех идентичных котов. Как оказалось, у Уивер была аллергия на глицерин, который служил имитацией пота на коже актрисы.
  • Название компании - Weylan Yutani. В «Чужих» (1986) Джеймс Камерон немного подкорректирует название - Weyland Yutani.
  • В костюме чужого были использованы пластилин и детали моторов Rolls Royce.
  • Создатель спецэффектов Брайан Джонсон работал одновременно над этим фильмом и картиной «Звездные войны: Эпизод V – Империя наносит ответный удар» (1980).
  • После первых недель съёмок, Дэн О’Бэннон попросил у продюсеров разрешения посмотреть отснятый материал, но получил отказ. Однако, О’Бэннону удалось просмотреть материал: он договорился с киномехаником и находился в комнате с кинопроектором во время показа чернового материала.
  • Для того чтобы снять сцену «рождения» чужого, Джону Хёрту пришлось просунуть голову, плечи и руки в специальную дыру в столе, соединенном с искусственным туловищем, в котором содержался сжатый воздух и множество внутренностей животных.
  • Вопль, который издает новорожденный чужой, – это комбинация звуков шипения гадюки, свинячьего визга и плача ребенка.
  • Для того чтобы снять сцену гибели Паркера, была сделана специальная резиновая голова Яфета Котто, набитая свинячьими мозгами. Лоб был сделан из воска, для того чтобы зубы чужого могли с легкостью его пробить.
  • Для сцен, где чужой перемещается по кораблю, декорации помещений специально перестраивали под Боладжи Бадеджо, для того чтобы облегчить его движения и предоставить ему больше мест, где можно спрятаться. Однако, не смотря на все усилия декораторов, Боладжи несколько раз рвал костюм чужого.
  • В сцене, где Эш проводит аутопсию фэйсхаггера, тело последнего было сделано из свежих моллюсков, устриц и овечьей почки.
  • Некоторые мониторы с «Ностромо» будут также использованы в «Бегущем по лезвию» (1982).
  • Эмбриональные движения фэйсхаггера (до того как он выпрыгивает из яйца) были созданы руками Ридли Скотта, одетыми в резиновые перчатки.
  • В сцене, где Ламберт, Даллас и Кейн осматривают инопланетного пилота, их роли исполнили дети Ридли Скотта и Дерека Ванлинта, для того чтобы придать помещению и инопланетянину больший размер.
  • В минисериале «Голубая планета» (2001), Дэвид Аттэнборо говорит, что чужой был смоделирован с фронимы, существа, обитающего на очень больших океанских глубинах. Его тело составляет 2,5 сантиметра в длину. На вид существо напоминает креветку с глазами, челюстью и зубами как у монстра, созданного Х.Р. Гигером.
  • Название компании «Weyland Yutani» появляется на экране компьютера во время посадки.
  • Звук, который можно услышать на заднем плане в лаборатории, где лежит Кейн с фэйсхаггером на голове, также можно услышать в комнате Декарда в «Бегущем по лезвию» (1982).
  • Для декорации пола на «Ностромо» были использованы перевернутые и перекрашенные ящики для бутылок из-под молока.
  • Изначально у чужого должны были быть четко выделенные глаза.
  • Ни одна крупная студия в Голливуде, включая «20th Century Fox», не хотела иметь ничего общего с данным проектом из-за чрезмерной жестокости и кровавости. Ситуация изменились только тогда, когда проектом заинтересовался Уолтер Хилл. Студия «20th Century Fox» согласилась профинансировать картину при условии, что будет уменьшено количество насилия. Но даже после всех мер, предпринятых студией, создателям фильма пришлось перемонтировать картину, т.к. она получилась слишком кровавой.
  • Несмотря на то, что в 2003 году вышла режиссерская версия фильма, куда было добавлено несколько новых сцен, Ридли Скотт сделал специальную пометку в DVD-издании, гласящую, что настоящей режиссерской версией фильма он считает версию, смонтированную в 1979 году, еще до выхода картины на экраны. Режиссерская версия, в настоящее время доступная на DVD, была названа режиссерской, исходя лишь из коммерческих соображений.
  • Для того чтобы добиться эффекта пара, идущего из шлемов, был использован аэрозоль, который распрыскивали изнутри шлемов.
  • Автор рекламных слоганов, Барбара Гипс, придумала известнейший тэглайн: «В космосе, никто не сможет услышать твой вопль».
  • Боладжи Бадеджо, сыгравший чужого, до начала фильма брал уроки пантомимы и занимался Тай-Цзи Цюань (китайская гимнастика).
  • В начальной сцене, когда мы видим различные помещения «Ностромо», можно заметить кофеварку «Krups». Точно такая же модель кофеварки была использована как «Мистер Синтез» в фильме «Назад в будущее» (1985).
  • Большинство известных продюсеров имеет целый штат людей, которые читают сценарии, а затем пишут краткую версию сюжета. Сценарий «Чужого» был охарактеризован, как «это почти «Челюсти», но в космосе».
  • Роджер Дикен, отвечавший за спецэффекты в сцене «рождения» чужого, хотел, чтобы последний выбирался из груди Кейна с помощью маленьких рук, но его идею отклонили.
  • Для создания тонкого слоя тумана, который покрывает яйца чужих, была использована дымовая установка, позаимствованная у группы «The Who».
  • На пост режиссера рассматривались кандидатуры Роберта Олдрича, Питера Йэтса, Джека Клэйтона, Дэна О’Бэннона и Уолтера Хилла.
  • Внутренности яиц чужих, которые рассматривает Кейн, содержали настоящие органические элементы. В их дизайне были использованы сердца и желудки коров. Хвост фэйсхаггера – овечьи кишки.
  • Билл Патерсон мог исполнить одну из ролей в фильме.
  • Желая узнать женское мнение о Сигурни Уивер в роли Рипли, Ридли Скотт показал её пробы нескольким женщинам из производственного отдела, которые положительно отозвались о её игре.
  • По словам Ридли Скотта, вдохновением для съёмок фильма ему послужили «Звездные войны» (1977) и «Космическая одиссея 2001» (1968) за изображение космоса, и «Техасская резня бензопилой» (1974) за атмосферу страха.
  • Упомянутая в фильме звездная система Zeta-2 Reticuli реально существует. Это двойная звезда, на расстоянии 39 световых лет от Земли.
-

MI

General
Unique ID : 209276100660901272803483368045284635400 (0x9D711C6355F16508B01CCC2678A33308)
Complete name : Alien.1979.DirCut.BDRip.x264.Rus.Eng-Skazhutin.mkv
Format : Matroska
Format version : Version 2
File size : 4.37 GiB
Duration : 1h 55mn
Overall bit rate : 5 397 Kbps
Encoded date : UTC 2011-10-12 06:41:29
Writing application : mkvmerge v5.0.1 ('Es ist Sommer') built on Oct 9 2011 11:55:43
Writing library : libebml v1.2.2 + libmatroska v1.3.0
Attachment : Yes / Yes / Yes / Yes / Yes
Video
ID : 1
Format : AVC
Format/Info : Advanced Video Codec
Format profile : High@L4.1
Format settings, CABAC : Yes
Format settings, ReFrames : 11 frames
Codec ID : V_MPEG4/ISO/AVC
Duration : 1h 55mn
Bit rate : 4 500 Kbps
Width : 1 280 pixels
Height : 544 pixels
Display aspect ratio : 2.35:1
Frame rate : 23.976 fps
Color space : YUV
Chroma subsampling : 4:2:0
Bit depth : 8 bits
Scan type : Progressive
Bits/(Pixel*Frame) : 0.270
Stream size : 3.55 GiB (81%)
Writing library : x264 core 116 r2074 2641b9e
Encoding settings : cabac=1 / ref=11 / deblock=1:-3:-3 / analyse=0x3:0x113 / me=umh / subme=11 / psy=1 / psy_rd=1.00:0.00 / mixed_ref=1 / me_range=24 / chroma_me=1 / trellis=2 / 8x8dct=1 / cqm=0 / deadzone=21,11 / fast_pskip=0 / chroma_qp_offset=-2 / threads=12 / sliced_threads=0 / nr=0 / decimate=0 / interlaced=0 / bluray_compat=0 / constrained_intra=0 / bframes=14 / b_pyramid=2 / b_adapt=2 / b_bias=0 / direct=3 / weightb=1 / open_gop=0 / weightp=2 / keyint=250 / keyint_min=23 / scenecut=40 / intra_refresh=0 / rc_lookahead=60 / rc=2pass / mbtree=0 / bitrate=4500 / ratetol=1.0 / qcomp=0.60 / qpmin=0 / qpmax=69 / qpstep=4 / cplxblur=20.0 / qblur=0.5 / vbv_maxrate=50000 / vbv_bufsize=62500 / nal_hrd=none / ip_ratio=1.40 / pb_ratio=1.30 / aq=1:0.80
Language : English
Default : Yes
Forced : No
Color primaries : BT.709-5, BT.1361, IEC 61966-2-4, SMPTE RP177
Transfer characteristics : BT.709-5, BT.1361
Matrix coefficients : BT.709-5, BT.1361, IEC 61966-2-4 709, SMPTE RP177
Audio #1
ID : 2
Format : AC-3
Format/Info : Audio Coding 3
Mode extension : CM (complete main)
Codec ID : A_AC3
Duration : 1h 55mn
Bit rate mode : Constant
Bit rate : 448 Kbps
Channel(s) : 6 channels
Channel positions : Front: L C R, Side: L R, LFE
Sampling rate : 48.0 KHz
Bit depth : 16 bits
Compression mode : Lossy
Stream size : 371 MiB (8%)
Title : Dub
Language : Russian
Default : Yes
Forced : No
Audio #2
ID : 3
Format : AC-3
Format/Info : Audio Coding 3
Mode extension : CM (complete main)
Codec ID : A_AC3
Duration : 1h 55mn
Bit rate mode : Constant
Bit rate : 448 Kbps
Channel(s) : 6 channels
Channel positions : Front: L C R, Side: L R, LFE
Sampling rate : 48.0 KHz
Bit depth : 16 bits
Compression mode : Lossy
Stream size : 371 MiB (8%)
Title : Eng
Language : English
Default : No
Forced : No
Text #1
ID : 4
Format : UTF-8
Codec ID : S_TEXT/UTF8
Codec ID/Info : UTF-8 Plain Text
Language : Russian
Default : No
Forced : No
Text #2
ID : 5
Format : UTF-8
Codec ID : S_TEXT/UTF8
Codec ID/Info : UTF-8 Plain Text
Language : Ukrainian
Default : No
Forced : No
Text #3
ID : 6
Format : UTF-8
Codec ID : S_TEXT/UTF8
Codec ID/Info : UTF-8 Plain Text
Title : «Киномания»
Language : Russian
Default : No
Forced : No
Text #4
ID : 7
Format : UTF-8
Codec ID : S_TEXT/UTF8
Codec ID/Info : UTF-8 Plain Text
Title : На расш. моменты перевода Гоблина
Language : Russian
Default : No
Forced : No
Text #5
ID : 8
Format : ASS
Codec ID : S_TEXT/ASS
Codec ID/Info : Advanced Sub Station Alpha
Compression mode : Lossless
Language : English
Default : No
Forced : No
Text #6
ID : 9
Format : ASS
Codec ID : S_TEXT/ASS
Codec ID/Info : Advanced Sub Station Alpha
Compression mode : Lossless
Title : Комментарии Сигурни Уивер, Ридли Скотта и др.
Language : English
Default : No
Forced : No
Text #7
ID : 10
Format : ASS
Codec ID : S_TEXT/ASS
Codec ID/Info : Advanced Sub Station Alpha
Compression mode : Lossless
Title : Комментарии Ридли Скотта
Language : English
Default : No
Forced : No
Menu
00:00:00.000 : en:Main Titles
00:02:01.120 : en:Auto Pilot
00:04:40.153 : en:Awakening
00:07:55.849 : en:Mu-th-ur
00:09:10.508 : en:Nostromo Re-Routed
00:12:40.425 : en:Locating the Source
00:14:16.105 : en:Answering the Call
00:20:05.912 : en:Walking Distance
00:23:22.651 : en:Proceeding Blindly
00:25:05.252 : en:Dark Horizons
00:27:50.876 : en:A Word of Warning
00:31:51.826 : en:Kane's Descent
00:35:32.922 : en:Surface Tension
00:37:04.347 : en:Facehugger
00:40:33.889 : en:Acid
00:43:26.518 : en:Standard Procedure
00:47:28.302 : en:The Missing Guest
00:50:06.128 : en:It Has to Go Back
00:51:44.309 : en:Long Journey Ahead
00:54:24.677 : en:The Last Supper
00:59:01.746 : en:On the Hunt
01:00:26.872 : en:"Stick Together"
01:03:36.311 : en:"Here Jonesy"
01:08:18.719 : en:"Kane's Son"
01:10:04.948 : en:Into the Air Ducts
01:12:52.408 : en:The Third Junction
01:14:33.926 : en:No Blood, No Dallas
01:17:14.712 : en:Special Order 937
01:19:02.904 : en:Ash Attacks
01:22:34.282 : en:Crew Expendable
01:26:39.234 : en:Escape Plan
01:28:49.573 : en:"Kitty, Kitty, Kitty"
01:30:48.734 : en:Cornered
01:32:39.761 : en:Auto-Destruct Initiated
01:34:23.782 : en:Mercy
01:37:45.149 : en:Override Failed
01:39:14.448 : en:Narscissus Escape
01:43:28.243 : en:Survivors
01:46:17.953 : en:"You Are My Lucky Star"
01:53:05.610 : en:End Credits
-

x264 log

Код:
y4m [info]: 1280x544p 1:1 @ 24000/1001 fps (cfr)
x264 [info]: using SAR=1/1
x264 [info]: using cpu capabilities: MMX2 SSE2Fast SSSE3 FastShuffle SSE4.2 AVX
x264 [info]: profile High, level 4.1
x264 [info]: frame I:1067 Avg QP:14.54 size: 86860
x264 [info]: frame P:32882 Avg QP:16.82 size: 38880
x264 [info]: frame B:132682 Avg QP:18.15 size: 19115
x264 [info]: consecutive B-frames: 2.3% 2.1% 5.4% 13.7% 15.3% 33.6% 9.3% 4.6% 3.7% 3.3% 2.1% 1.9% 1.2% 1.2% 0.4%
x264 [info]: mb I I16..4: 9.4% 75.6% 15.0%
x264 [info]: mb P I16..4: 2.1% 14.0% 1.1% P16..4: 30.4% 35.5% 11.5% 0.0% 0.0% skip: 5.4%
x264 [info]: mb B I16..4: 0.3% 2.0% 0.1% B16..8: 35.7% 21.6% 4.2% direct: 9.4% skip:26.7% L0:45.5% L1:42.2% BI:12.3%
x264 [info]: 8x8 transform intra:81.1% inter:56.3%
x264 [info]: direct mvs spatial:98.2% temporal:1.8%
x264 [info]: coded y,uvDC,uvAC intra: 83.4% 86.0% 69.7% inter: 35.2% 33.2% 11.9%
x264 [info]: i16 v,h,dc,p: 71% 8% 5% 16%
x264 [info]: i8 v,h,dc,ddl,ddr,vr,hd,vl,hu: 7% 7% 10% 10% 14% 13% 14% 11% 14%
x264 [info]: i4 v,h,dc,ddl,ddr,vr,hd,vl,hu: 6% 8% 17% 9% 14% 11% 12% 9% 13%
x264 [info]: i8c dc,h,v,p: 49% 21% 14% 16%
x264 [info]: Weighted P-Frames: Y:11.0% UV:6.7%
x264 [info]: ref P L0: 44.1% 6.7% 17.2% 8.8% 6.5% 5.0% 4.1% 2.5% 2.0% 1.7% 1.3% 0.2% 0.0%
x264 [info]: ref B L0: 65.8% 16.0% 7.0% 3.6% 2.6% 1.9% 1.5% 0.9% 0.5% 0.2%
x264 [info]: ref B L1: 91.4% 8.6%
x264 [info]: kb/s:4497.74
encoded 166631 frames, 6.37 fps, 4497.74 kb/s
--Чужие / Aliens (1986) «В некоторых местах Вселенной вы не одиноки...»-
Год выпуска: 1986
Страна: США, Великобритания
Жанр: фантастика, боевик, триллер
Продолжительность: 02:34:26
Перевод:
Дублированный
Многоголосный (LDV)
Многоголосный (Киномания)
Многоголосный (Позитив-Мультимедиа)
Многоголосный (Супербит)
Авторский (Гаврилов Андрей)
Авторский (Пучков Дмитрий)
Авторский (Горчаков Василий)
Авторский (Кашкин Александр)
Авторский (Марченко Александр)
Cубтитры: русские, украинские, английские
Навигация по главам: есть
Режиссер: Джеймс Кэмерон / James Cameron
Сценарий: Джеймс Кэмерон / James Cameron, Дэн О’Бэннон / Dan O'Bannon, Рональд Шусетт / Ronald Shusett, Дэвид Гайлер / David Giler, Уолтер Хилл / Walter Hill
Продюсер: Гордон Кэрролл / Gordon Carroll, Дэвид Гайлер / David Giler, Уолтер Хилл / Walter Hill, Гэйл Энн Херд / Gale Anne Hurd
Оператор: Эдриан Биддл / Adrian Biddle
Композитор: Джеймс Хорнер / James Horner
В ролях: Сигурни Уивер (Ellen Ripley,), Майкл Бьен (Cpl. Dwayne Hicks), Кэрри Хенн (Rebecca 'Newt' Jorden), Лэнс Хенриксен (Bishop), Пол Райзер (Carter Burke), Билл Пэкстон (Pvt. Hudson), Уильям Хоуп (Lt. Gorman), Дженетт Голдстин (Pvt. Vasquez), Эл Мэтьюз (Sgt. Apone), Марк Ролстон (Pvt. Drake), Рикко Росс (Pvt. Frost), Колетт Хиллер (Cpl. Ferro)
Дублёры: Ольга Зубкова (Ellen Ripley), Владимир Антоник (Bishop), Илья Бледный (Pvt. Hudson), Пётр Иващенко (Lt. Gorman), Татьяна Шитова (Pvt. Vasquez), Андрей Бархударов (Sgt. Apone), Дмитрий Полонский (Pvt. Drake), Александр Груздев (Pvt. Frost), Мария Овчинникова (Cpl. Ferro), Олег Куценко (Van Leuwen)-Описание: Чужой - совершенный организм. Идеальная машина для убийства, чье физическое превосходство сочетается с его феноменальной жаждой уничтожения. Офицер Элен Рипли и команда космического корабля Ностромо один раз уже встретилась с такой тварью. В живых осталась только Элен.
Капсула с Элен найдена спасателями после многих лет блуждания в космосе. Ей сообщают, что планета L.V. 426 колонизирована, и ей придется вернуться туда, где начался ее кошмар, ибо связь с колонистами прервалась. И вот в составе группы космического десанта Рипли отправляется на проклятую планету. Но теперь их там поджидает не один Чужой, а тысячи. Кто сможет выжить в этой войне: чудовища, способные только убивать, или люди, способные мыслить?-Рейтинг
kinopoisk.ru: 8.002 (33 003)
imdb.com: 8.50 (213 807)
MPAA: R - Лицам до 17 лет обязательно присутствие взрослого-Качество: BDRip (tRuAVC)
Исходник: BD-Remux [HDClub]. спасибо sergey_n
Формат: Matroska
Видеокодек: AVC
Аудиокодек: AC3
Видео: 984x532 (1.850); 4417 Kbps; 23,976 fps
Аудио : Russian; AC3; 448 Kbps; CBR; 6 ch; Дубляж
Аудио : English; AC3; 448 Kbps; CBR; 6 ch; Original
Субтитры: Russian (Blu-ray CEE), Ukrainian, Russian (Киномания), English, English
Отдельно:
Аудио : Russian; AC3; 448 Kbps; CBR; 6 ch; LDV
Аудио : Russian; AC3; 448 Kbps; CBR; 6 ch; Киномания
Аудио : Russian; AC3; 448 Kbps; CBR; 6 ch; Позитив-Мультимедиа
Аудио : Russian; AC3; 448 Kbps; CBR; 6 ch; Супербит
Аудио : Russian; AC3; 448 Kbps; CBR; 6 ch; Гаврилов
Аудио : Russian; AC3; 448 Kbps; CBR; 6 ch; Пучков
Аудио : Russian; AC3; 448 Kbps; CBR; 6 ch; Горчаков
Аудио : Russian; AC3; 448 Kbps; CBR; 6 ch; Кашкин
Аудио : Russian; AC3; 448 Kbps; CBR; 6 ch; Марченко-

Знаете ли Вы, что...

  • Джеймс Римар должен был сыграть Хикса, но был заменен на Майкла Бьена спустя несколько дней после начала съёмок. Официальная причина — творческие разногласия с режиссером фильма, Джеймсом Кэмероном.
  • Оператор Дик Буш выбыл из проекта из-за творческих разногласий с Джеймсом Кэмероном и Гэйл Энн Хёрд (продюсер фильма)
  • Декорация гнезда чужих была сохранена после завершения съёмок. Впоследствии она была использована как декорация завода «Axis Chemicals» в «Бэтмане» (1989).
  • Сценарная заявка на фильм была завершена 21 сентября 1983 года и называлась «Чужой 2». Вот некоторые различия между сценарной заявкой и законченным фильмом: 1) Персонаж Картера Бёрка (Пол Райзер) отсутствовал, его диалоги были отданы некому доктору О'Нилу, который не полетел вместе с Рипли и морскими пехотинцами на планету колонистов. 2) Рипли была отправлена не на станцию «Gateway Station», а на «Околоземную станцию Бета» (Earth Station Beta). 3) Планета колонистов называлась «Ахерон» вместо «LV-426». Данное название планеты было взято из сценария к «Чужому» (1979). 4) Дочь Рипли была жива. Также в сценарной заявке присутствовала сцена разговора по видеотелефону между Рипли и её дочерью, в которой дочь обвиняла мать в том, что она её бросила, улетев в космос. 5) На планете колонистов существовало несколько атмосферных установок. 6) По ходу фильма из Рипли, Ньют и Хикса делают коконы. 7) Чужие, которые делают из людей коконы — другая порода. Они выглядят как уменьшенные альбинос-версии чужих-войнов. 8) Бишоп отказывался посадить шатл и подобрать Рипли, Хикса и Ньют. Он объясняет это тем, что риск заражения других населенных планет крайне высок. Рипли использует один из шатлов колонистов, для того чтобы вернуться на «Сулако». Бишоп говорит ей — «ты была права на счет меня».
  • Первый вариант сценария был закончен 30 мая 1985 года. Он довольно сильно отличается от сценарной заявки и намного ближе к окончательной версии сценария. Однако, в нем можно найти ряд отличий от окончательной версии: 1) Рипли дает морским пехотинцам более подробный инструктаж о чужих. 2) Около тридцати установок для выработки атмосферы установлено на планете колонистов. В окончательной версии была всего одна установка. 3) Ньют предлагает Рипли удочерить её. 4) Когда Бишоп ползет по туннелю, он сталкивается с чужим. 5) В первом варианте сценария присутствует сцена, в которой Рипли, спасая Ньют, случайно сталкивается с Картером Бёрком (Пол Райзер), из которого сделали кокон. Он просит Рипли о помощи. В ответ она дает ему гранату. Данная сцена была снята, но не вошла ни в театральную, ни в режиссерскую версии.
  • Одна из самых сложных сцен фильма — морские пехотинцы входят в гнездо чужих — была снята, до того как Джеймс Римар был заменен Майклом Бьеном. Переснимать данную сцену было бы слишком дорого, поэтому зрители могут видеть только спину капрала Хикса, которого в данной сцене сыграл Римар.
  • Съёмки фильма проходили в Англии, поэтому режиссер и продюсеры решили занять в своем фильме американских актеров, которые проживали в Англии. Кэрри Хэнн, которая сыграла Ньют, по происхождению американка, но жила в Англии. В фильме брата Ньют зовут Тимми, в реальной жизни это — родной брат Кэрри, которого зовут Кристофер Хэнн.
  • Композитор фильма, Джеймс Хорнер, признался, что Джеймс Кэмерон дал ему настолько мало времени для написания музыки к фильму, что он был вынужден использовать некоторые части из своих предыдущих композиций, а также написать свою интерпретацию «Gayane Ballet Suite» для начальных и финальных титров. Хорнер утверждает, что во время пост-продакшна он решил, что никогда больше не будет работать с Кэмероном. Однако, Кэмерон был настолько восхищен музыкой Хорнера к «Храброму сердцу» (1995), что предложил ему написать музыку к «Титанику» (1997). Хорнер согласился.
  • Переговоры между Сигурни Уивер и студией по поводу участия в фильме последней шли крайне напряженно. В то же самое время Джеймс Кэмерон и Гэйл Энн Херд поженились. Они объявили, что если договоренность между студией и Сигурни не будет достигнута до того, как они вернуться со своего медового месяца, то они покинут проект. Когда они вернулись, соглашение не было достигнуто. Кэмерон страстно желал снять этот фильм, поэтому он разработал хитрую схему, как заманить Уивер в продолжении «Чужого» (1979). Кэмерон позвонил агенту Арнольда Шварценеггера и, как бы, между делом сказал, что он разрабатывает альтернативный сценарий к «Чужим», в котором будет полностью отсутствовать героиня Сигурни Уивер. Как и надеялся Кэмерон, агент немедленно позвонил своему коллеге, представляющему интересы Уивер, который в свою очередь немедленно связался с главой производственного отдела «20 Век Фокс», Лоренсом Горденом. Обе стороны справедливо решили, что продолжение возможно только с участием Уивер, и без лишних проволочек подписали контракт.
  • Актеры, игравшие морских пехотинцев, прошли специальные тренировки под руководством настоящих морских пехотинцев. Тренировки длились как минимум две недели. Майкл Бьен не проходил тренировки, так как заменил Джеймса Римара спустя неделю после начала съёмок. Сигурни Уивер, Пол Райзер и Уильям Хоуп не проходили тренировок, так как Джеймс Кэмерон решил, что это поможет создать разделение между данной троицей и морскими пехотинцами. Эти три актера сыграли персонажей никак не связанные с отделением. Рипли была консультантом при полете на «LV-426»; Бёрк представлял финансовые интересы Компании; лейтенанта Гормана только что назначили командующим отделения, к тому же у него было намного меньше боевого опыта, чем у остального личного состава.
  • Кроме тренировок, чтение романа Роберта Хайнлайна «Звездный десант» входило в обязательную подготовку актеров, сыгравших морских пехотинцев.
  • Ни одна из моделей «Нарцисса», шатла «Ностромо», из «Чужого» (1979) не сохранилась. Для того чтобы воссоздать модель корабля и внутренние помещения, декораторам и команде по спецэффектам пришлось неоднократно пересмотреть «Чужого» (1979).
  • Специальное издание фильма включает в себя ряд дополнительных сцен. Вот некоторые из них: 1) Родители Ньют находят инопланетный корабль на «LV-426». 2) Сцены, в которых Рипли обсуждает свою дочь. 3) Хадсон хвастается на счет своего вооружения. 4) Роботы-часовые отражают первую атаку чужих. 5) Хикс и Рипли говорят друг другу свои имена
  • Эл Мэттьюс, сыгравший сержанта, в реальной жизни был первым черным морским пехотинцем во Вьетнаме, которого повысили в звании до сержанта.
  • В обеих версиях, театральной и режиссерской, финальный пятнадцати минутный отчет времени на самом деле продолжается… ровно пятнадцать минут.
  • В удаленной сцене, Элизабет Ингис сыграла дочь Рипли. В реальности, Элизабет — мать Сигурни Уивер.
  • Сигурни Уивер попросила Джеймса Кэмерона, чтобы её героиня в фильме сделала три вещи: не носила оружия; умерла; и занималась любовью с чужим. Несмотря на то, что ни одно из этих пожеланий не было выполнено, героиня Сигурни Уивер сделала всё это в последующих фильмах о чужих.
  • Во время переговоров о гонораре с Сигурни Уивер, студия попросила Джеймса Кэмерона написать альтернативный вариант сценария, в котором не было бы Рипли. Кэмерон отказался, заявив, что он не видит продолжения без Рипли.
  • Студия вела переговоры с Эйч. Р. Гигером о том, чтобы он создал новые декорации и модели чужих, но Джеймс Кэмерон выступил против такого решения. Единственной новой моделью в фильме была Королева чужих, дизайн которой к тому времени разработал сам Кэмерон.
  • В одной из сцен Бишоп говорит: «Я не могу причинить вред или допустить какое-либо действие, направленное на причинение вреда, человеку». Тем самым он повторяет первый закон робототехники, сформулированный Айзеком Азимовым.
  • Как и большинство фильмов, «Чужие» снимались не последовательно. Но для большего реализма, Джеймс Кэмерон снял сцену первого появления в кадре морских пехотинцев одной из последних. Так как актеры провели несколько месяцев вместе, Кэмерон тем самым постарался показать дух товарищества среди морских пехотинцев.
  • Для большего реализма Джеймс Кэмерон попросил актеров, игравших морских пехотинцев, добавить какие-нибудь личные детали для своей амуниции. Подобным образом поступало большинство солдат во Вьетнаме, расписывая свои каски и амуницию. Так, например, на шлеме капрала Дитрих (Синтия Дэйл Скотт) написано «Blue Angel». Марлен Дитрих исполнила главную роль в «Голубом ангеле» (Der Blaue Engel). «Blue Angel» — английское название фильма. На бронежилете рядового Хадсона (Билл Пэкстон) написано «Луиза». В реальной жизни жену Билла Пэкстона зовут Луиза Ньюбери.
  • В сцене, где Васкез стреляет в чужого из дробовика, Джанет Голдстаин не могла справиться с отдачей от оружия. В результате, в сценах стрельбы Гэйл Энн Херд (продюсер фильма) подменяла Джанет. Гэйл была единственной женщиной на съёмочной площадке, которая до этого стреляла из такого вида оружия.
  • При съёмках использовалось три разных вида дыма, впоследствии один из которых был запрещен для применения при съёмках фильмов.
  • Музыка, играющая в сцене, где Рипли и Ньют ожидают лифт, и появляется Королева чужих, — часть композиции Джерри Голдсмита, которую он написал для «Чужого» (1979).
  • Название компании — «Вэйланд Ютани» (Weyland Yutani) — было составлено из имен бывших соседей Ридли Скотта, которых он страшно ненавидел.
  • Из-за бюджетных ограничений, несколько зеркал было использовано в первой сцене на борту «Сулако», для того чтобы показать большее количество установок для криогенного сна, чем их было на самом деле.
  • Город, в котором живут колонисты, называется «Надежда Хадли» (Hadley's Hope).
  • В сцене, в которой Бёрк и Рипли обсуждают психическое состояние последней, на столе можно заметить журнал «People».
  • По версии «Intertainment Weekly» фильм занял 42 место в списке «Величайших фильмов всех времен». Фильм был охарактеризован, как «лучший фильм в жанре экшн всех времен».
  • При монтаже фильма одна из начальных сцен, в которой речь идет о жизни колонистов на «LV-426», была удалена. Но некоторые элементы этой сцены можно встретить в последующих работах Джеймса Кэмерона. Так, например, фраза «…и они всегда отвечают одно и тоже — не спрашивай» была использована в «Терминаторе 2: Судный день» (1991). Имя одного из персонажей Лэйдекер использовалось в «Темном ангеле» (Dark Angel) (2000).
  • Сигурни Уивер не горела желанием вновь исполнить роль Рипли. Она отвергла множество предложений со стороны студии «20 Век Фокс», так как её не устраивала ни одна из предложенных концепций сиквела. Однако, после того как она прочитала сценарий Джеймса Кэмерона, уделившего немало времени на проработку её героини, а также на отношения матери-дочери между Рипли и Ньют, Уивер дала свое согласие на участие в фильме.
  • Уже после того, как Джеймс Кэмерон был утвержден для написания сценария, продюсеры согласились не отдавать проект в чужие руки и подождать, пока Кэмерон снимет «Терминатора» (1984). Студия пошла на такие уступки, т.к. ей уж очень сильно понравилась его сценарная заявка.
  • Для съёмок экшн-сцен в логове чужих была использована электростанция, которая была закрыта незадолго до начала работы над фильмом.
  • Бронетранспортер был построен на основе буксира для самолетов, купленного у аэропорта Heathrow. Создателям фильма пришлось немало попотеть, чтобы уменьшить стандартную массу машины c 75 до 30 тонн
  • Одна из дизайнерских компаний предлагала Кэмерону свои услуги по разработке внешнего вида бронетранспортера, однако, из-за бюджетных ограничений продюсерам картины пришлось отказаться от услуг данной компании.
  • Для декорации ванной комнаты Рипли в её квартире был использован туалет в самолетах компании «British Airways».
  • Требовалась 14-16 человек, для того чтобы заставить двигаться модель Королевы чужих.
  • Дженетт Голдстин не правильно поняла содержание картины и пришла на пробы, одетая как ирландский эмигрант 19 века. Она всё-таки получила роль в фильме, но другие актеры постоянно подшучивали по поводу её наряда на пробах. В итоге, Джеймсу Кэмерону пришлось добавить несколько подобных шуток в сценарий в качестве словесных перепалок между Васкез и Хадсоном (Билл Пэкстон). О необычных пробах Дженет не забыли даже на съёмках «Титаника» (1997). Правда, в этом фильме Кэмерона она наконец-таки сыграла ирландскую эмигрантку.
  • Лэнс Хенриксен хотел надеть специальные контактные линзы, создававшие эффект двух зрачков в одном глазе, для сцены, где он работает в лаборатории и бросает довольно жуткий взгляд на одного из морских пехотинцев. Лэнс явился на съёмочную площадку в таких линзах, но Джеймс Кэмерон уговорил его отказаться от данной идеи, заверив его, что даже без линз взгляд у него более чем зловещий.
  • Звуковые эффекты, использованные для открывающихся / закрывающихся дверей, идентичны звуковым эффектам для автоматических дверей в фильме «The Prisoner» (1967).
  • Звук звонка видеотелефона в сцене между Рипли и Берком точно такой же, как и у телефонов в «The Prisoner» (1967).
  • Специальный механизм, с помощью которого фэйсхаггеры двигались в колбах, также применялся в более раннем фильме Джеймса Кэмерона «Пираньи 2: Нерест» (1981). Потребовалось 9 человек, чтобы оживить фэйсхаггера: по одному человеку для каждой ноги и один для управления хвостом.
  • Для съёмок фильма было использовано всего лишь шесть костюмов чужих.
  • Поясные крепления для смарт ганов Васкез и Дрейка были взяты от камеры Steadicam.
  • Импульсные винтовки (М41А) морских пехотинцев были разработаны на основе пулемета Thompson M1A1, а подствольный гранатомет – на основе дробовика Franchi SPAS 12.
  • Смарт Ганы (M-56) морских пехотинцев и вооружение «стражников» были сконструированы на основе немецкого пулемета MG 42.
  • Шлемы, которые носят морские пехотинцы, - это модифицированная версия баллистического шлема М-1.
  • Для съёмок сцены, в которой Рипли, держа на руках Ньют, убегает от Королевы чужих, команды по спецэффектам сделала специальную, в натуральную величину куклу Ньют.
  • Бишоп делает такой же трюк с ножом, как и Бойлер в «Темной звезде» (1974) Джона Карпентера. Схожий трюк можно увидеть в фильмах «Нож в воде» (1962) и «Чужой против Хищника» (2004).
  • В книге Джозефа Конрада «Ностромо» один из городов называется Сулако.
  • На бронежилете Васкез можно заметить надпись «El riesgo vive siempre!», что при дословном переводе с испанского означает: «Всегда выживает тот, кто не боится рисковать!»
  • Сразу несколько человек занимались разработкой внешнего вида челнока, доставляющего морских пехотинцев с «Сулако» на планету колонистов, но Кэмерону не понравилась ни одна из предложенных моделей. В конце концов, Джим сам разработал дизайн челнока, показанного в фильме.
  • Если внимательно присмотреться к новорожденному чужому, вылезающему из груди одного из колонистов, то у него можно заметить небольшие руки. В первом фильме, по настоянию Ридли Скотта, маленького чужого «лишили» рук.
  • В настоящее время одно из яиц фэйсхаггера находится в «Смитсоновском институте» в Вашингтоне.
  • У Королевы чужих – прозрачные зубы в отличие от чужих-воинов.
  • Увидев театральную версию картины, Сигурни Уивер грозилась больше никогда не сниматься в фильмах о чужих. В качестве компромисса в 1987 было выпущено специальное издание на Laser-Disc.
  • Личные номера морских пехотинцев: Сержант Апоне, A A19/TQ4.0.32751E8 Рядовой Кроу, T A46/TQ1.0.98712E6 Капрал Дитрих, C A41/TQ8.0.81120E2 Рядовой Дрейк, M A23/TQ2.0.47619E7 Капрал Ферро, C A71/TQ9.0.09428E1 Рядовой Фрост, R A17/TQ4.0.61247E5 Лейтенант Горман, S A09/TQ4.0.56124E3 Капрал Хикс, D A27/TQ4.0.48215E9 Рядовой Хадсон, W A08/TQ1.0.41776E3 Рядовой Спанкмайер, D A23/TQ6.0.92810E7 Рядовой Васкез, J A03/TQ7.0.15618E4 Рядовой Вирзбовски, T A14/TQ8.0.20034E7
  • В сцене, где команда Сулако просыпается после гиперсна, на экране монитора можно заметить список всех членов экипажа. Примечательно, что после фамилии того или иного героя идет первая буква имени актера, его сыгравшего, за исключением «Хикса, Д», «Рипли, Э.» и «Гормана, С.»
  • После того, как Дэвид Гилер и Уолтер Хилл прочитали сценарий Кэмерона к «Терминатору» (1984), они точно решили сделать с ним совместный фильм. На встрече с Гилером и Хиллом Кэмерон предложил несколько идей для будущих проектов, но ни одна из них не заинтересовала продюсеров. Когда встреча уже подходила к концу Гилер и Хилл как бы между делом упомянули о том, что собираются сделать продолжение «Чужого» (1979). Кэмерон сразу же заинтересовался проектом, и написал 40-50 страничную сценарную заявку, которая во многом была основана на его же сценарии «Мать» (Mother). Продюсерам пришлось по душе кэмероновское видение сиквела, и они подписали контракт с Джимом. В тот же самый день Кэмерон подписал контракт на написание сценария к «Рэмбо 2» (1985).
  • На самом начальном этапе съёмок фильма съёмочная группа относилась довольно враждебно к Джеймсу Кэмерону, не понимая, почему на постановку «Чужих» был выбран никому неизвестный режиссер (на тот момент «Терминатор» (1984) еще не вышел в британский прокат). Гэйл Энн Херд даже пришлось уволить ассистента режиссера.
  • Несмотря на номинацию на «Оскар», Джеймс Хорнер был крайне не доволен тем, как обошлись с его музыкой. Дело в том, что готовый саундтрек не совсем подходил для финального монтажа картины. Так как во время монтажа Хорнер работал на другом проекте, Джеймс Кэмерон самостоятельно «порезал» музыку.
  • Майклу Бьену позвонили в пятницу, предложив роль Хикса. Уже в следующий понедельник он приступил к съёмкам.
  • Специальная смесь из молока и йогурта была использована в качестве «крови» андроида Бишопа.
  • Жесткое расписание Джеймса Хорнера позволяла ему выделить для работы над фильмом не более шести недель. Прибыв в Лондон, он узнал, что съёмки картины еще не завершены, а монтаж только начался. Ему пришлось прождать три недели, прежде чем приступить к написанию музыки для фильма.
  • В первом варианте сценария Бишоп особо подчеркивал, что андроид Эш из «Чужого» (1979) мог быть неисправен, т.к. являлся старой моделью, Cyberdyne Systems 120-A/2. Cyberdyne Systems – название компании из «Терминатора» (1984).
  • До того как их призвали на военную службу, Васкез и Дрейк отбывали срок в одной и той же тюрьме для несовершеннолетних. Об этом не упоминается в фильме, но сказано в сценарии.
  • Лэнс Хенриксен предложил, чтобы в сцене с ножом его рука лежала поверх руки Билла Пэкстона.
  • На смарт гане Дрейка написано «моя ***мат***» («my bitch)».
  • На смарт гане Васкез написано «Adios».
  • После выхода фильма компания Caterpillar (CAT), которая занимается производством тяжёлого строительного оборудования, получила несколько запросов от людей, заинтересованных в приобретении шагающего погрузчика-экзоскелета CAT (сокращенно от Caterpillar), с помощью которого Элен Рипли борется с самкой чужого в финальной сцене фильма. В свою очередь, компании Caterpillar пришлось объяснять, что это оборудование существует только в фантастическом фильме.
  • Режиссёрская версия фильма имеет хронометраж 154 минуты.
  • Сулако - это вымышленный город из романа «Ностромо» Дж. Конрада.
-

MI

General
Unique ID : 208108767190709795965829367983555774892 (0x9C904A678722C1E3BCB70BDA9BC089AC)
Complete name : Aliens.1986.SE.BDRip.x264.Rus.Eng-Skazhutin.mkv
Format : Matroska
Format version : Version 2
File size : 5.74 GiB
Duration : 2h 34mn
Overall bit rate : 5 316 Kbps
Encoded date : UTC 2011-10-12 07:15:42
Writing application : mkvmerge v5.0.1 ('Es ist Sommer') built on Oct 9 2011 11:55:43
Writing library : libebml v1.2.2 + libmatroska v1.3.0
Attachment : Yes / Yes / Yes / Yes / Yes
Video
ID : 1
Format : AVC
Format/Info : Advanced Video Codec
Format profile : High@L4.0
Format settings, CABAC : Yes
Format settings, ReFrames : 13 frames
Codec ID : V_MPEG4/ISO/AVC
Duration : 2h 34mn
Bit rate : 4 314 Kbps
Width : 984 pixels
Height : 532 pixels
Display aspect ratio : 1.850
Frame rate : 23.976 fps
Color space : YUV
Chroma subsampling : 4:2:0
Bit depth : 8 bits
Scan type : Progressive
Bits/(Pixel*Frame) : 0.344
Stream size : 4.65 GiB (81%)
Writing library : x264 core 116 r2074kMod 2641b9e
Encoding settings : cabac=1 / ref=13 / deblock=1:-3:-3 / analyse=0x3:0x133 / me=umh / subme=11 / psy=1 / fade_compensate=0.00 / psy_rd=0.95:0.00 / mixed_ref=1 / me_range=24 / chroma_me=1 / trellis=2 / 8x8dct=1 / cqm=0 / deadzone=21,11 / fast_pskip=0 / chroma_qp_offset=-2 / threads=12 / sliced_threads=0 / nr=0 / decimate=1 / interlaced=0 / bluray_compat=0 / constrained_intra=0 / bframes=14 / b_pyramid=2 / b_adapt=2 / b_bias=0 / direct=3 / weightb=1 / open_gop=0 / weightp=2 / keyint=250 / keyint_min=23 / scenecut=40 / intra_refresh=0 / rc=crf / mbtree=0 / crf=19.7000 / qcomp=0.60 / qpmin=0 / qpmax=69 / qpstep=4 / ip_ratio=1.40 / pb_ratio=1.30 / aq=3:0.90
Language : English
Default : Yes
Forced : No
Matrix coefficients : BT.709-5, BT.1361, IEC 61966-2-4 709, SMPTE RP177
Audio #1
ID : 2
Format : AC-3
Format/Info : Audio Coding 3
Mode extension : CM (complete main)
Codec ID : A_AC3
Duration : 2h 34mn
Bit rate mode : Constant
Bit rate : 448 Kbps
Channel(s) : 6 channels
Channel positions : Front: L C R, Side: L R, LFE
Sampling rate : 48.0 KHz
Bit depth : 16 bits
Compression mode : Lossy
Stream size : 495 MiB (8%)
Title : Dub
Language : Russian
Default : Yes
Forced : No
Audio #2
ID : 3
Format : AC-3
Format/Info : Audio Coding 3
Mode extension : CM (complete main)
Codec ID : A_AC3
Duration : 2h 34mn
Bit rate mode : Constant
Bit rate : 448 Kbps
Channel(s) : 6 channels
Channel positions : Front: L C R, Side: L R, LFE
Sampling rate : 48.0 KHz
Bit depth : 16 bits
Compression mode : Lossy
Stream size : 495 MiB (8%)
Title : Eng
Language : English
Default : No
Forced : No
Text #1
ID : 4
Format : UTF-8
Codec ID : S_TEXT/UTF8
Codec ID/Info : UTF-8 Plain Text
Language : Russian
Default : No
Forced : No
Text #2
ID : 5
Format : UTF-8
Codec ID : S_TEXT/UTF8
Codec ID/Info : UTF-8 Plain Text
Language : Ukrainian
Default : No
Forced : No
Text #3
ID : 6
Format : UTF-8
Codec ID : S_TEXT/UTF8
Codec ID/Info : UTF-8 Plain Text
Title : «Киномания»
Language : Russian
Default : No
Forced : No
Text #4
ID : 7
Format : ASS
Codec ID : S_TEXT/ASS
Codec ID/Info : Advanced Sub Station Alpha
Compression mode : Lossless
Language : English
Default : No
Forced : No
Menu
00:00:00.000 : en:Main Titles
00:02:06.750 : en:Human Salvage
00:05:15.731 : en:57 Years
00:08:34.346 : en:The Park
00:10:52.108 : en:Inquest
00:15:13.619 : en:Lv-426
00:17:25.001 : en:The Big Score
00:20:54.126 : en:Home Alone
00:25:02.500 : en:Ripley's Decision
00:25:57.471 : en:Sulaco
00:30:03.718 : en:The Android
00:32:53.887 : en:Briefing
00:35:56.862 : en:The Loader
00:38:03.530 : en:Express Elevator to Hell
00:45:40.070 : en:Arrival
00:52:28.518 : en:Memories
00:54:48.076 : en:Lab Specimens
00:56:09.114 : en:Movement
01:00:11.106 : en:Newt
01:04:47.506 : en:Rescue Mission
01:10:10.997 : en:Cocoons
01:12:51.992 : en:The Battle
01:16:22.868 : en:Ripley's Rescue
01:21:22.252 : en:Altercation
01:23:17.198 : en:Stranded
01:26:21.134 : en:Barricade
01:31:22.059 : en:A Mother's Love
01:34:37.421 : en:Speculation
01:37:25.255 : en:The Tunnel
01:38:40.706 : en:Bad News
01:41:23.243 : en:The Corridor
01:45:03.462 : en:Dreamland
01:47:15.552 : en:Not a Dream
01:51:41.402 : en:For a Percentage
01:52:58.604 : en:"Game Time"
02:02:10.363 : en:Little Girl Lost
02:05:54.046 : en:Ripley's Promise
02:07:41.986 : en:Reluctant Soldier
02:13:15.528 : en:The Nest
02:17:29.615 : en:The Final Countdown
02:22:24.700 : en:It's Over
02:23:16.710 : en:Final Confrontation
02:30:16.004 : en:Dreams
02:31:36.460 : en:End Titles
-

x264 log

Код:
y4m [info]: 984x532p 1:1 @ 24000/1001 fps (cfr)
x264 [info]: using SAR=1/1
x264 [info]: using cpu capabilities: MMX2 SSE2Fast SSSE3 FastShuffle SSE4.2 AVX
x264 [info]: profile High, level 4.0
x264 [info]: frame I:1308 Avg QP:18.36 size: 72885
x264 [info]: frame P:48801 Avg QP:19.75 size: 42570
x264 [info]: frame B:172076 Avg QP:22.09 size: 17109
x264 [info]: consecutive B-frames: 2.8% 2.4% 6.8% 17.7% 19.5% 39.6% 5.5% 1.6% 1.3% 0.9% 0.5% 0.4% 0.3% 0.6% 0.1%
x264 [info]: mb I I16..4: 2.8% 86.8% 10.4%
x264 [info]: mb P I16..4: 0.3% 26.0% 2.0% P16..4: 22.5% 31.2% 11.7% 3.9% 0.1% skip: 2.3%
x264 [info]: mb B I16..4: 0.0% 2.1% 0.3% B16..8: 41.1% 25.3% 6.4% direct: 7.7% skip:17.0% L0:47.7% L1:44.4% BI: 8.0%
x264 [info]: 8x8 transform intra:90.5% inter:59.4%
x264 [info]: direct mvs spatial:99.9% temporal:0.1%
x264 [info]: coded y,uvDC,uvAC intra: 95.6% 94.8% 80.0% inter: 48.4% 41.3% 6.4%
x264 [info]: i16 v,h,dc,p: 43% 12% 5% 40%
x264 [info]: i8 v,h,dc,ddl,ddr,vr,hd,vl,hu: 8% 7% 8% 11% 15% 14% 14% 11% 12%
x264 [info]: i4 v,h,dc,ddl,ddr,vr,hd,vl,hu: 30% 5% 4% 8% 13% 12% 11% 9% 9%
x264 [info]: i8c dc,h,v,p: 47% 19% 16% 17%
x264 [info]: Weighted P-Frames: Y:30.0% UV:22.3%
x264 [info]: ref P L0: 37.2% 9.5% 17.9% 7.7% 6.3% 4.6% 4.2% 2.4% 2.3% 1.9% 1.9% 1.6% 1.7% 0.6% 0.2%
x264 [info]: ref B L0: 61.9% 13.9% 7.5% 4.2% 3.1% 2.6% 2.1% 1.4% 1.2% 1.1% 0.7% 0.3%
x264 [info]: ref B L1: 91.2% 8.8%
x264 [info]: kb/s:4417.29
encoded 222185 frames, 5.55 fps, 4417.29 kb/s
x264 [info]: ended at Sat Sep 24 08:14:55 2011
x264 [info]: encoding duration 11:07:22
--Чужой 3 / Alien 2003 Special 'Assembly (1992) «Снова началось...»-
Год выпуска: 1992
Страна: США
Жанр: фантастика, боевик, триллер
Продолжительность: 02:24:52
Перевод:
Дублированный
Многоголосный (LDV)
Многоголосный (Киномания)
Многоголосный (Позитив-Мультимедиа)
Многоголосный (Супербит)
Авторский (Гаврилов Андрей)
Авторский (Пучков Дмитрий)
Авторский (Живов Юрий)
Cубтитры: русские, украинские, английские
Навигация по главам: есть
Режиссер: Дэвид Финчер / David Fincher
Сценарий: Дэн О’Бэннон / Dan O'Bannon, Рональд Шусетт / Ronald Shusett, Винсент Уорд / Vincent Ward, Дэвид Гайлер / David Giler, Уолтер Хилл / Walter Hill
Продюсер: Гордон Кэрролл / Gordon Carroll, Дэвид Гайлер / David Giler, Уолтер Хилл / Walter Hill, Эзра Свердлоу / Ezra Swerdlow, Сигурни Уивер / Sigourney Weaver
Оператор: Алекс Томсон / Alex Thomson
Композитор: Эллиот Голденталь / Elliot Goldenthal
В ролях: Сигурни Уивер (Ellen Ripley,), Чарльз С. Даттон (Dillon), Чарльз Дэнс (Clemens), Пол МакГэнн (Golic), Брайан Гловер (Andrews), Ральф Браун (Aaron), Дэниэл Уэбб (Morse), Кристофер Джон Филдс (Rains), Холт МакКэллани (Junior), Лэнс Хенриксен (Bishop II), Кристофер Фэйрбэнк (Murphy), Карл Чейз (Frank)
Дублёры: Ольга Зубкова (Ellen Ripley), Денис Беспалый (Dillon), Валерий Сторожик (Clemens), Андрей Градов (Golic), Олег Куценко (Andrews), Владимир Антоник (Bishop II)-Описание: После бегства с планеты «Чужих» космический корабль Рипли терпит катастрофу вблизи так называемой планеты - тюрьмы, места, где отсиживают свой срок убийцы, насильники и прочие отбросы общества. Вместе с Рипли на эту планету попадает зародыш чужого, который и был причиной гибели корабля. Довольно быстро он превращается в гигантскую, зубастую тварь и начинает свое темное дело.
Его жертвами становятся десятки безоружных заключенных. Кровь брызжет фонтаном, куски человеческого мяса разлетаются во все стороны. И кажется, что остановить эту машину смерти не сможет никто, никто кроме отважной, но увы не бессмертной девушки по имени Рипли.-Рейтинг
kinopoisk.ru: 7.050 (10 187)
imdb.com: 6.30 (95 784)
MPAA: R - Лицам до 17 лет обязательно присутствие взрослого-Качество: BDRip (tRuAVC)
Исходник: BD-Remux [HDClub]. спасибо sergey_n
Формат: Matroska
Видеокодек: AVC
Аудиокодек: AC3
Видео: 1178x498 (2.35:1); 3419 Kbps; 23,976 fps
Аудио : Russian; AC3; 448 Kbps; CBR; 6 ch; Дубляж
Аудио : English; AC3; 448 Kbps; CBR; 6 ch; Original
Субтитры: Russian (Blu-ray CEE), Russian (Киномания), Ukrainian, Russian (расш. моменты к переводу Пучкова), English
Отдельно:
Аудио : Russian; AC3; 448 Kbps; CBR; 6 ch; LDV
Аудио : Russian; AC3; 448 Kbps; CBR; 6 ch; Киномания
Аудио : Russian; AC3; 448 Kbps; CBR; 6 ch; Позитив-Мультимедиа
Аудио : Russian; AC3; 448 Kbps; CBR; 6 ch; Супербит
Аудио : Russian; AC3; 448 Kbps; CBR; 6 ch; Гаврилов
Аудио : Russian; AC3; 448 Kbps; CBR; 6 ch; Пучков
Аудио : Russian; AC3; 448 Kbps; CBR; 6 ch; Живов-

Знаете ли Вы, что...

  • Первоначально режиссером фильма должен был стать Ренни Харлин, но он покинул проект, для того чтобы снять продолжение «Крепкого орешка». Затем Винсент Уорд значился режиссером фильма, но спустя несколько месяцев он был уволен из-за творческих разногласий с продюсерами. Также на пост режиссера рассматривался сценарист фильма, Уолтер Хилл, но он отказался от данной должности, когда Дэвид Финчер получил предложение поставить фильм.
  • Спустя две недели с начала съёмок оператор Алекс Томсон заменил Джордана Кроунвета из-за болезни последнего.
  • В сценарии Винсента Уорда, который получил зеленый свет, действие происходило на планетоиде «Арсеон». На этом планетоиде располагался гигантский деревянный монастырь, построенный Компанией, и окруженный бескрайним морем. В монастыре проживало 350 монахов, которые верили, что они живут в постапокалиптическом средневековье. Монахи не признавали никаких современных технологий, и уклад их жизни ничем не отличался от средневековья. Когда шатл Рипли приземлился на планетоиде, монахи обвинили её в том, что именно она виновата во вторжении чужих на их землю. Рипли была беременна чужим, так сказать, традиционным способом. Поэтому она была беременна гибридом чужого-человека. Уорд покинул проект, после того как продюсеры настояли на том, чтобы он заменил монахов заключенными и отказался от идеи использования деревянного монастыря.
  • Героиня Сигурни Уивер, Рипли, отсутствовала в ранних версиях сценария.
  • В первых вариантах сценария действие должно было происходить в гигантском деревянном монастыре, при этом появление самого чужого не планировалось.
  • После того как был закончен первый вариант сценария (в котором действие происходит в монастыре), началось возведение декораций. Так как сценарий постоянно переписывался, то работы были остановлены. Несмотря на то, что в окончательной версии сценария действие происходит в тюрьме, для съёмок фильма были использованы некоторые наполовину достроенные декорации помещений монастыря.
  • В сценарии, который написал Уильям Гибсон, Рипли большую часть времени находилась в коме.
  • Многочисленные переписывания сценария привели к тому, что была неправильно организована рекламная кампания фильма, которая предполагала, что действие будет происходить на Земле.
  • Из-за того, что в первых вариантах сценария действие происходило на Земле, одним из ранних слоганов фильма была фраза: «On Earth, everyone can hear you scream» (На Земле каждый сможет услышать твой вопль).
  • Если перевести венгерское название фильма обратно на английский язык, то получится «Final Solution: Death» (Окончательное решение: Cмерть).
  • В серии комиксов, выпущенных по вселенной киносериала, действие происходило спустя несколько лет после событий в «Чужих». Повзрослевшая Ньют и Хикс пытаются помешать корпорации «Вэйланд Ютани» (Weyland Yutani) заполучить особь чужого. Комиксы были переизданы к моменту выхода «Чужого 3» (1992) на экраны.
  • После завершения съёмочного периода Дэвид Финчер покинул данный проект, аргументируя это постоянным вмешательством студии в творческий процесс. Он не принимал участия в монтаже фильма.
  • В конце 1991 года из-за постоянно возникающих сложностей, съёмки фильма были остановлены на «Pinewood Studios» (Англия) и перенесены в Лос-Анджелес. Одной из сцен, которые предстояло снять, была сцена убийства чужого в бассейне со свинцом. От Сигурни Уивер снова требовалось побрить наголо голову. Она согласилась, но только если ей дополнительно заплатят $40 000. Продюсеры отклонили её предложение и наняли Грега Кэннома, для того чтобы он создал специальный парик. Парик обошелся в $16 000, и его создание потребовало много времени и усилий.
  • Одна из ранних идей фильма предполагала чужого, появляющегося из груди героя Майкла Бьена, Хикса. Даже была создана модель Хикса с разорванной грудью, но после того как Бьен узнал об этом, он пригрозил подать в суд на продюсеров за использование этой модели без его согласия. В дальнейшем продюсеры отказались от этой идеи, но заплатили Бьену за использование в фильме его фотографий. По неподтвержденным данным за свои фотографии Бьен получил больше денег, чем за его роль в «Чужих» (1986).
  • Фраза доктора Клеменса о Фурии-161 «…планета-тюрьма, принадлежащая Вэйлэнд Ютани» является первым упоминанием вслух названия Компании. Раньше можно было заметить название Компании на различном оборудовании и компьютерных мониторах, но персонажи всегда называли компанию просто «Компанией».
  • Первоначальный бюджет фильма составлял $45 миллионов, из них $5,5 млн. — гонорар Сигурни Уивер. Однако, из-за бесконечных изменений сценария, смены режиссеров, пересъёмок бюджет вырос до $65 миллионов.
  • $7 миллионов было потрачено на строительство декораций, которые так и не были использованы.
  • Роль Клеменса была предложена Гэбриэлю Бирну.
  • Изначально бык должен был стать животным, которое вынашивало эмбрион чужого. Позднее, создатели решили отказаться от данной идеи. Однако, оригинальные сцены были восстановлены и включены в режиссерскую версию фильма (Assembly Cut).
  • Строительство декорации главного литейного цеха заняло 12 недель.
  • Для того чтобы создать труп Ребекки (Ньют), создатели фильма использовали куклу Кэрри Хенн, сделанную в натуральную величину специально для съёмок «Чужих» (1986).
  • Съёмки фильма пришлось прервать на три месяца до тех пор, пока не было завершено очередное переписывание сценария.
  • За пределами съёмочной площадки Сигурни Уивер пришлось носить парик, т.к. её двухлетней дочке уж очень не нравилась лысая мама.
  • В данном фильме чужой отличается от себе подобных в предыдущих картинах: у него более четко выражены губы и отсутствуют органические трубки на спине.
  • Монтаж фильма продолжался около года.
  • Кран, который подымает спасательную шлюпку из воды, был построен из различных частей истребителя X-Wing из «Звездных воин».
  • На поверхности планеты можно заметить крест, символизирующий религию, которую приняли заключенные. Декораторы создали четыре модели креста, после чего Дэвид Финчер выбрал одну из них.
  • Большинство декораций завода было сделано из картона.
  • Х.Р. Гигер разработал внешний вид чужого, который напоминал пуму с клешнями. Продюсеры также сказали ему, чтобы он сделал модели чужих более сексуальными. Гигер предложил модель чужого, у которого были женские губы. Одна из его идей заключалось в том, что чужой целует жертву, тем самым убивая её. Данная идея была использована в «Особи» (1995), где внешний вид инопланетного существа также разработал Гигер.
  • Гонорар за работу над этим фильмом Винсент Уорд использовал для финансирования своей следующей картины «Карта человеческого сердца» (1993).
  • В контракте Сигурни Уивер был специальным пункт, гласящий, что сценарий фильма должны были обязательно написать Уолтер Хилл и Дэвид Гилер. По словам Уивер, Рипли – сложный образ, и только Джеймсу Камерону, Хиллу и Гилеру удалось раскрыть данный персонаж.
  • Один из отцов-основателей киберпанка, Уильям Гибсон, написал свой вариант сценария, который, по мнению многих, является лучшим сценарием среди тех, что были написаны для третьей части. Сценарий датирован 1989 годом, когда участие Сигурни Уивер в фильме было под вопросом, поэтому во главу сюжета были поставлены Хикс и Бишоп (персонажи из «Чужих» (1986)). Единственное, что осталось от идей Гибсона в «Чужом 3» - тюремные номера на шеях заключенных.
  • Эрик Ред, Дэвид Туи, Джон Фазано и Рекс Пикетт написали свои версии сценария фильма. В настоящее время их работы можно легко найти в Интернете.
  • На одном из этапов разработки проекта рассматривались различные варианты сюжета, в которых отсутствовала Рипли. Однако некоторое время спустя, Джо Рот (на тот момент президент студии 20th Century Fox) заявил, что продолжение будет снято, только если в него вернется героиня Сигурни Уивер.
  • После того как Дэвид Финчер разругался с продюсерами, ему было отказано в съёмках кульминационной сцены фильма, где Рипли и чужой встречаются лицом к лицу. Несмотря на запрет, Финчер снял данную сцену. Именно его вариант был использован при окончательном монтаже картины.
  • В 2004 году студия «20th Century Fox» выпустила специальное издание всех четырех фильмов на DVD – «Alien Quadrilogy». Студия очень хотела, чтобы Дэвид Финчер смонтировал свой вариант картины и записал комментарии к ней, но Дэвид отказался. Финчер – единственный режиссер фильмов о чужих, который отказался иметь что-либо общее с проектом после завершения съёмок.
  • Специальная версия 2003 года имеет хронометраж 145 минут.
-

MI

General
Unique ID : 193895042118229094371383701826996703261 (0x91DED3A7178FD7CB93516BE3237A901D)
Complete name : Alien.3.1992.SE.BDRip.x264.Rus.Eng-Skazhutin.mkv
Format : Matroska
Format version : Version 2
File size : 4.37 GiB
Duration : 2h 24mn
Overall bit rate : 4 318 Kbps
Encoded date : UTC 2011-10-12 05:37:14
Writing application : mkvmerge v5.0.1 ('Es ist Sommer') built on Oct 9 2011 11:55:43
Writing library : libebml v1.2.2 + libmatroska v1.3.0
Attachment : Yes / Yes / Yes / Yes / Yes
Video
ID : 1
Format : AVC
Format/Info : Advanced Video Codec
Format profile : High@L4.0
Format settings, CABAC : Yes
Format settings, ReFrames : 11 frames
Codec ID : V_MPEG4/ISO/AVC
Duration : 2h 24mn
Bit rate : 3 420 Kbps
Width : 1 178 pixels
Height : 498 pixels
Display aspect ratio : 2.35:1
Frame rate : 23.976 fps
Color space : YUV
Chroma subsampling : 4:2:0
Bit depth : 8 bits
Scan type : Progressive
Bits/(Pixel*Frame) : 0.243
Stream size : 3.38 GiB (77%)
Writing library : x264 core 118 r2085kMod 8a62835
Encoding settings : cabac=1 / ref=11 / deblock=1:-2:-1 / analyse=0x3:0x133 / me=umh / subme=11 / psy=1 / fade_compensate=0.00 / psy_rd=1.00:0.05 / mixed_ref=1 / me_range=24 / chroma_me=1 / trellis=2 / 8x8dct=1 / cqm=0 / deadzone=21,11 / fast_pskip=0 / chroma_qp_offset=-3 / threads=12 / sliced_threads=0 / nr=0 / decimate=0 / interlaced=0 / bluray_compat=0 / constrained_intra=0 / bframes=13 / b_pyramid=2 / b_adapt=2 / b_bias=0 / direct=3 / weightb=1 / open_gop=0 / weightp=2 / keyint=250 / keyint_min=23 / scenecut=40 / intra_refresh=0 / rc=2pass / mbtree=0 / bitrate=3420 / ratetol=1.0 / qcomp=0.63 / qpmin=0 / qpmax=69 / qpstep=4 / cplxblur=20.0 / qblur=0.5 / ip_ratio=1.40 / pb_ratio=1.30 / aq=3:0.80 / zones=200212,208412,q=35
Language : English
Default : Yes
Forced : No
Matrix coefficients : BT.709-5, BT.1361, IEC 61966-2-4 709, SMPTE RP177
Audio #1
ID : 2
Format : AC-3
Format/Info : Audio Coding 3
Mode extension : CM (complete main)
Codec ID : A_AC3
Duration : 2h 24mn
Bit rate mode : Constant
Bit rate : 448 Kbps
Channel(s) : 6 channels
Channel positions : Front: L C R, Side: L R, LFE
Sampling rate : 48.0 KHz
Bit depth : 16 bits
Compression mode : Lossy
Stream size : 464 MiB (10%)
Title : Dub
Language : Russian
Default : Yes
Forced : No
Audio #2
ID : 3
Format : AC-3
Format/Info : Audio Coding 3
Mode extension : CM (complete main)
Codec ID : A_AC3
Duration : 2h 24mn
Bit rate mode : Constant
Bit rate : 448 Kbps
Channel(s) : 6 channels
Channel positions : Front: L C R, Side: L R, LFE
Sampling rate : 48.0 KHz
Bit depth : 16 bits
Compression mode : Lossy
Stream size : 464 MiB (10%)
Title : Eng
Language : English
Default : No
Forced : No
Text #1
ID : 4
Format : UTF-8
Codec ID : S_TEXT/UTF8
Codec ID/Info : UTF-8 Plain Text
Language : Russian
Default : No
Forced : No
Text #2
ID : 5
Format : UTF-8
Codec ID : S_TEXT/UTF8
Codec ID/Info : UTF-8 Plain Text
Title : «Киномания»
Language : Russian
Default : No
Forced : No
Text #3
ID : 6
Format : UTF-8
Codec ID : S_TEXT/UTF8
Codec ID/Info : UTF-8 Plain Text
Language : Ukrainian
Default : No
Forced : No
Text #4
ID : 7
Format : UTF-8
Codec ID : S_TEXT/UTF8
Codec ID/Info : UTF-8 Plain Text
Title : На расш. моменты перевода Гоблина
Language : Russian
Default : No
Forced : No
Text #5
ID : 8
Format : ASS
Codec ID : S_TEXT/ASS
Codec ID/Info : Advanced Sub Station Alpha
Compression mode : Lossless
Language : English
Default : No
Forced : No
Menu
00:00:00.000 : en:Main Titles
00:03:42.972 : en:Crash Landing
00:04:31.477 : en:One Survivor?
00:09:29.693 : en:The Facts
00:12:13.398 : en:The Sleeper Awakens
00:15:01.442 : en:Inspecting the Ship
00:16:33.701 : en:A Possible Contagion
00:24:27.922 : en:What Killed Babe?
00:26:31.755 : en:A New Beginning
00:31:07.739 : en:Disharmony
00:33:12.824 : en:New Temptation
00:35:53.150 : en:Attracted in That Way
00:37:43.260 : en:Diced
00:43:32.735 : en:The Flight Recorder
00:46:11.268 : en:High Priority
00:49:15.284 : en:A Re-Education
00:51:46.811 : en:Candlelight Dinner
00:55:52.056 : en:Bishop Speaks
00:59:33.318 : en:Discussing the Dragon
01:02:51.434 : en:A Long, Sad Story
01:07:33.256 : en:"It's Here!"
01:11:03.634 : en:Who's In Charge?
01:14:12.823 : en:The Plan
01:17:08.872 : en:Preparations
01:19:05.698 : en:Wait for the Signal
01:24:41.033 : en:They Don't Want to Kill It
01:26:19.506 : en:Cut Loose
01:28:02.859 : en:Permission Denied
01:29:09.926 : en:Alien Unbound
01:34:12.770 : en:Under the Scanner
01:37:18.707 : en:Better Get Prepared
01:39:29.253 : en:A Classified Code
01:42:47.452 : en:In the Basement
01:46:07.444 : en:It Has to Die
01:49:57.715 : en:Plan B
01:54:04.796 : en:One Chance
01:56:30.024 : en:It Started
01:58:32.896 : en:Improvising
02:05:23.806 : en:Ripley & the Beast
02:08:09.180 : en:In the Mold
02:10:50.175 : en:Time for a Cold Shower
02:12:42.912 : en:Never Trust a Bishop
02:16:18.461 : en:Ripley's Choice
02:19:09.966 : en:End Titles
-

x264 log

Код:
y4m [info]: 1178x498p 1:1 @ 24000/1001 fps (cfr)
x264 [info]: using SAR=1/1
x264 [info]: using cpu capabilities: MMX2 SSE2Fast SSSE3 FastShuffle SSE4.2 AVX
x264 [info]: profile High, level 4.0
x264 [info]: frame I:1530 Avg QP:14.60 size: 86533
x264 [info]: frame P:42493 Avg QP:17.42 size: 34329
x264 [info]: frame B:164390 Avg QP:19.37 size: 12921
x264 [info]: consecutive B-frames: 2.0% 2.0% 4.3% 19.6% 14.4% 43.0% 4.5% 4.7% 1.1% 1.1% 0.8% 1.1% 0.6% 0.7%
x264 [info]: mb I I16..4: 9.6% 77.3% 13.1%
x264 [info]: mb P I16..4: 1.3% 21.6% 1.3% P16..4: 25.9% 33.0% 9.9% 2.4% 0.1% skip: 4.7%
x264 [info]: mb B I16..4: 0.1% 1.4% 0.1% B16..8: 36.5% 23.5% 4.0% direct: 8.6% skip:25.7% L0:47.7% L1:42.0% BI:10.4%
x264 [info]: 8x8 transform intra:86.9% inter:56.9%
x264 [info]: direct mvs spatial:98.9% temporal:1.1%
x264 [info]: coded y,uvDC,uvAC intra: 89.9% 88.9% 71.6% inter: 37.2% 39.2% 13.8%
x264 [info]: i16 v,h,dc,p: 40% 13% 9% 38%
x264 [info]: i8 v,h,dc,ddl,ddr,vr,hd,vl,hu: 10% 7% 11% 9% 13% 12% 13% 11% 14%
x264 [info]: i4 v,h,dc,ddl,ddr,vr,hd,vl,hu: 27% 8% 9% 7% 11% 11% 10% 8% 10%
x264 [info]: i8c dc,h,v,p: 48% 21% 17% 14%
x264 [info]: Weighted P-Frames: Y:19.3% UV:13.2%
x264 [info]: ref P L0: 39.9% 6.8% 17.7% 9.4% 7.1% 5.5% 4.6% 2.9% 2.4% 1.9% 1.5% 0.2% 0.0%
x264 [info]: ref B L0: 63.5% 14.8% 7.6% 4.3% 3.1% 2.4% 2.0% 1.2% 0.7% 0.3%
x264 [info]: ref B L1: 91.8% 8.2%
x264 [info]: kb/s:3419.23
encoded 208413 frames, 7.51 fps, 3419.23 kb/s
x264 [info]: ended at Tue Oct 11 13:40:39 2011
x264 [info]: encoding duration 16:09:38
--Чужой 4: Воскрешение / Alien: Resurrection (1997) «Главное - спастись...»-
Год выпуска: 1997
Страна: США
Жанр: фантастика, боевик, триллер
Продолжительность: 01:56:08
Перевод:
Дублированный
Многоголосный (LDV)
Многоголосный (Киномания)
Многоголосный (Позитив-Мультимедиа)
Авторский (Гаврилов Андрей)
Авторский (Пучков Дмитрий)
Авторский (Живов Юрий)
Cубтитры: русские, украинские, английские
Навигация по главам: есть
Режиссер: Жан-Пьер Жёне / Jean-Pierre Jeunet
Сценарий: Джосс Уидон / Joss Whedon, Дэн О’Бэннон / Dan O'Bannon, Рональд Шусетт / Ronald Shusett
Продюсер: Билл Бадалато / Bill Badalato, Гордон Кэрролл / Gordon Carroll, Дэвид Гайлер / David Giler, Уолтер Хилл / Walter Hill, Сигурни Уивер / Sigourney Weaver
Оператор: Дариус Хонджи / Darius Khondji
Композитор: Джон Фриззелл / John Frizzell
В ролях: Сигурни Уивер (Ellen Ripley,), Вайнона Райдер (Annalee Call,), Доминик Пинон (Vriess), Рон Перлман (Johner), Гари Дурдан (Christie), Майкл Уинкотт (Frank Elgyn), Ким Флауэрс (Sabra Hillard), Дэн Хедайя (Gen. Martin Perez), Дж. Э. Фримен (Dr. Mason Wren), Брэд Дуриф (Dr. Jonathan Gediman), Рэймонд Крус (Vincent Distephano), Лиленд Орсер (Larry Purvis)
Дублёры: Ольга Зубкова (Ellen Ripley (CPIG)), Дмитрий Филимонов (Vriess (CPIG)), Александр Груздев (Johner (CPIG)), Станислав Концевич (Невафильм), Андрей Бархударов (Christie (CPIG)), Денис Беспалый (Frank Elgyn (CPIG)), Никита Прозоровский (Dr. Mason Wren (CPIG))-Описание: Спустя двести лет после событий, произошедших на планете-тюрьме, группа ученых, опекаемых военным командованием, клонирует Эллен Рипли, чтобы с ее помощью заполучить детеныша инопланетного монстра. Вскоре он уже сам начинает плодиться, производя на свет новую породу - помесь кровожадного пришельца и... человека.-Рейтинг
kinopoisk.ru: 6.876 (7 980)
imdb.com: 6.20 (80 304)
MPAA: R - Лицам до 17 лет обязательно присутствие взрослого-Качество: BDRip (tRuAVC)
Исходник: BD-Remux [HDClub]. спасибо sergey_n
Формат: Matroska
Видеокодек: AVC
Аудиокодек: AC3
Видео: 1188x508 (2.35:1); 4478 Kbps; 23,976 fps
Аудио : Russian; AC3; 448 Kbps; CBR; 6 ch; Дубляж
Аудио : English; AC3; 448 Kbps; CBR; 6 ch; Original
Субтитры: Russian (Blu-ray CEE), Russian (Киномания), Russian (расш. моменты - Гоблин), Russian (Комментарии), Ukrainian, English
Отдельно:
Аудио : Russian; AC3; 448 Kbps; CBR; 6 ch; LDV
Аудио : Russian; AC3; 448 Kbps; CBR; 6 ch; Киномания
Аудио : Russian; AC3; 448 Kbps; CBR; 6 ch; Позитив-Мультимедиа
Аудио : Russian; AC3; 448 Kbps; CBR; 6 ch; Гаврилов
Аудио : Russian; AC3; 448 Kbps; CBR; 6 ch; Пучков
Аудио : Russian; AC3; 448 Kbps; CBR; 6 ch; Живов-

Знаете ли Вы, что...

  • В ранней версии сценария Джосса Уэдона, «Новорожденный» был четырехлапым существом, без глаз, с белой кожей и красными венами вдоль его головы. У него была внутренняя челюсть такая же, как и у остальных чужих. У него также были клешни на голове, которые использовались, для того чтобы держать жертву в то время, как с помощью внутренней челюсти он высасывал кровь жертвы.
  • В первом варианте сценария была сцена, действие которой происходило в ботаническом саду на борту «Возничего». В этой сцене Рипли управляла джипом, в то время как остальные пассажиры отбивались от полчища чужих. Данная сцена шла после сцены в часовне, но перед сценой появления «Новорожденного». Однако, сцена так и не была снята из-за бюджетных ограничений.
  • Найджл Фелпс разработал дизайн «Бетти», взяв за основу отбойный молоток. Предполагалось, что «Возничий» будет вертикальным сооружением, но от этой идеи отказались из-за сложностей разработки и построения декораций для такого сооружения.
  • Рон Перлман чуть не утонул во время съёмок подводной сцены. Когда он пытался выбраться на поверхность, он ударился головой о дождевую установку, потерял сознание и был спасен находившимися рядом членами съёмочной команды.
  • Джосс Уэдон написал пять версий финальной битвы с «Новорожденным». В четырех из них действие происходило на Земле в следующих локациях: в родильном отделении больницы, на гигантской свалке отходов, в снежном лесу, в пустыне.
  • Компьютер «Возничего» называется «Отец» (Father). В «Чужом» (1979) компьютер назывался «Мать» (Mother). В обоих фильмах существуют похожие сцены, в которых персонажи кричат на «Мать» или «Отца» за то, что она/он не отвечает на их приказы.
  • Вайнона Райдер чуть не утонула во время съёмок подводной сцены.
  • Джосс Уэдон написал роль Кристи специально для Чоу Юнь-Фата. Но последний отказался от роли.
  • Имена андроидов в данном киносериале идут в алфавитном порядке: в «Чужом» (1979) андроида звали Эш (Ash); в «Чужих» (1986) — Бишоп (Bishop); третьего андроида в «Чужом: Воскрешении» (1997) зовут Колл (Call). Таким образом, соблюдается последовательность английского алфавита — ABC (Ash-Bishop-Call).
  • Роль, которую впоследствии исполнила Вайона Райдер, была предложена Анджелине Джоли.
  • Когда фильм шел в кинотеатрах, имя Эйч. Р. Гигера отсутствовало в финальных титрах. При выходе фильма на видео данная ошибка была исправлена. Гигер выполнял определенные работы по дизайну чужих.
  • Первоначально планировалось, что четвертая часть киносериала станет киноадаптацией популярного комикса «Чужой против Хищника».
  • Перед сценаристом фильма стояла сложная задача — каким-то образом вернуть персонаж Сигурни Уивер в киносериал. Ранняя версия сценария предполагала, что Рипли просыпается на борту «Сулако» и понимает, что все события, произошедшие с ней в «Чужом 3» (1992), ей приснились.
  • Жан-Пьер Жане хотел включить в фильм сцену, в которой комар кусает Рипли, но затем в буквальном смысле растворяется в воздухе из-за её крови, в которой содержится кислота. В конце концов, он отказался от этой идеи, узнав, сколько времени и денег потребуется, для того чтобы сделать эту сцену.
  • Гонорар Сигурни Уивер за этот фильм составил большую величину, чем весь бюджет «Чужого» (1979).
  • Роль доктора Рена была специально написана для Билла Мюррея, с прицелом на то, чтобы вновь объединить Билла Мюррея и Сигурни Уивер на одной съёмочной площадки после «Охотников за привидениями» (1984).
  • Вайона Райдер дала согласие на свое участие в фильме, даже не читая сценария. Она заявила, что сыграет любую роль, даже если её персонажу будет суждено погибнуть в первой сцене фильма.
  • Сигурни Уивер на самом деле сделала тот самый фантастический баскетбольный бросок из-за спины. Чтобы этого достичь, ей потребовалось две недели тренировок под наставлением баскетбольного тренера. По окончанию курса тренировок в среднем она попадала в корзину один мяч из шести. Во время съёмок данной сцены она забросила мяч с первой попытки, находясь при этом на расстоянии шести футов (примерно 183 см) дальше трехочковой отметки. При монтаже фильма Жан-Пьер Жане хотел убрать данную сцену из фильма, потому что, по его мнению, зрители будут считать этот бросок слишком неправдоподобным. По требованию Сигурни сцену сохранили. Сама она называет данный бросок одним из самых прекрасных моментов в её жизни, разумеется, после свадьбы и рождения дочери.
  • Во время пре-продакшна выяснилось, что ни одной модели Королевы чужих в натуральную величину не сохранилось. К счастью продюсеров копия модели Королевы нашлась… у одного фаната киносериала.
  • При окончательном монтаже студия хотела, чтобы сцену, предшествующую столкновению Рипли и Королевы чужих, вырезали из фильма. Дело в том, что данную сцену можно истолковать, как любовную сцену. Но сцена была сохранена, после того как Сигурни Уивер пригрозила не участвовать в рекламной компании фильма, если данную сцену вырежут из фильма.
  • Во время съёмок Жан-Пьер Жане почти не знал английского языка.
  • Жан-Пьер Жане хотел снять дополнительную сцену, в которой Новорожденный преследует Рипли при бегстве с «Бетти». В данной сцене планировалось показать Новорожденного полностью сгенерированного на компьютере. Идеи Жан-Пьера Жана не суждено было воплотиться в жизнь из-за бюджетных ограничений.
  • Бюджет в $50-60 миллионов был намного меньше того, на что надеялись режиссер и сценарист фильма. Поэтому, декорации были не настолько масштабными, как планировалось; и в фильме использовано очень много крупных планов.
  • Студия планировала, что сценарий к фильму напишет Джон Ходж, а режиссером будет Дэнни Бойл. Но и тот и другой отказались, для того чтобы объединить свои усилия для создания «Жизнь хуже обычной» (1997).
  • На ранней стадии разработки проекта кандидатура Дэвида Кроненберга рассматривалась на пост режиссера.
  • «Чужой: Воскрешение» стал первым фильмом в фильмотографии Жана-Пьерра Жене, в котором ему не пришлось делить режиссерское кресло с кем-либо еще.
  • Первый кадр клона Рипли, выглядевшего как маленькая девочка, был создан на основе детских фотографий Сигурни Уивер, которыми она любезно поделилась с командой по спецэффектам.
  • Изначально Жан-Пьерр Жене хотел, чтобы главного злодея сделали женщиной. Однако, продюсеры отклонили данную идею, посчитав, что в фильме уже есть два главных женских персонажа.
  • Вполне может показаться, что специально для фильма был построен целый лабиринт бесконечных коридоров. Однако, для картины было сделано всего две декорации коридоров.
  • Чем дольше герои фильма бродят по бесконечным коридорам космического корабля, тем более темными и зловещими становятся локации.
  • Для съёмок подводной сцены в воду специально добавляли молоко, т.к. вода была слишком прозрачной, и зрителем могло показаться, что действие происходит не под водой.
  • Подводную сцену снимали в течение трех недель.
  • В дизайн «Новорожденного» специально добавили четко выделенные глаза, для того чтобы разубедить тех, кто уверял, что чужие не могут видеть, т.к. у них нет глаз.
  • Подводная сцена снималась в специально построенном для фильма водном резервуаре на студии 20th Century Fox. Потребовалась неделя, чтобы заполнить его водой.
  • Актеры прошли целый курс предварительных тренировок перед съёмками подводной сцены. Сигурни Уивер пропустила большинство из них, т.к. в то же самое время она играла в пьесе на Бродвее.
  • Код, который произносит Элджин, для посадки на «Возничем» - «EA-TM-E».
  • Для выпуска специального издания всех четырех фильмов на DVD «Alien Quadrilogy», студии Frantic Films поручили добавить в начало фильма зубы жука, которые напоминали челюсти чужого.
  • Изначально костюм Рипли должен был быть другим. Но когда Сигурни Уивер увидела костюм Ким Флауэрс, она потребовала, чтобы её героиню одели в точно такое же облачение.
  • Во многом Сигурни Уивер согласилась сниматься в фильме из-за сцены, где Рипли 8 уничтожает её семерых неудавшихся клонов.
  • Рон Перлман самостоятельно исполнил трюк в сцене, где его персонаж висит вниз головой на лестнице и стреляет из двух пистолетов.
  • Изначально Дэвид Гилер отказывался делать четвертый фильм.
  • «Чужой: Воскрешение» стал единственным фильмом о чужих, который не был снят в Англии. Одна из причин переноса места съёмок – Сигурни Уивер не хотелось покидать родную страну.
  • Съёмочная группа столкнулась с проблемой поиска места для съёмок фильма. Дело в том, что в то же самое время снимались «Титаник» (1997), «Звездный десант» (1997) и «Парк Юрского периода 2: Затерянный мир» (1997), которые задействовали практически все свободные павильоны.
  • Изначально лицо «Новорожденного» должно было напоминать Рипли, но авторам фильма пришлось отказаться от данной идеи, т.к. в «Особи» (1995) уже использовался такой подход к созданию монстра.
-

MI

General
Unique ID : 230938686444567281145242661685651554139 (0xADBD2C53D3D0C0A38669A6251A1FBF5B)
Complete name : Alien.Resurrection.1997.SE.BDRip.x264.Rus.Eng-Skazhutin.mkv
Format : Matroska
Format version : Version 2
File size : 4.36 GiB
Duration : 1h 56mn
Overall bit rate : 5 378 Kbps
Encoded date : UTC 2011-12-28 09:56:38
Writing application : mkvmerge v5.2.0 ('I can't explain') built on Dec 18 2011 18:12:03
Writing library : libebml v1.2.3 + libmatroska v1.3.0
Attachment : Yes / Yes / Yes / Yes / Yes
Video
ID : 1
Format : AVC
Format/Info : Advanced Video Codec
Format profile : High@L4.1
Format settings, CABAC : Yes
Format settings, ReFrames : 13 frames
Codec ID : V_MPEG4/ISO/AVC
Duration : 1h 56mn
Bit rate : 4 480 Kbps
Width : 1 188 pixels
Height : 508 pixels
Display aspect ratio : 2.35:1
Frame rate : 23.976 fps
Color space : YUV
Chroma subsampling : 4:2:0
Bit depth : 8 bits
Scan type : Progressive
Bits/(Pixel*Frame) : 0.310
Stream size : 3.55 GiB (81%)
Writing library : x264 core 120 r2120 0c7dab9
Encoding settings : cabac=1 / ref=13 / deblock=1:-3:-3 / analyse=0x3:0x133 / me=umh / subme=11 / psy=1 / psy_rd=1.00:0.00 / mixed_ref=1 / me_range=48 / chroma_me=1 / trellis=2 / 8x8dct=1 / cqm=0 / deadzone=21,11 / fast_pskip=0 / chroma_qp_offset=-2 / threads=12 / sliced_threads=0 / nr=0 / decimate=0 / interlaced=0 / bluray_compat=0 / constrained_intra=0 / bframes=16 / b_pyramid=2 / b_adapt=2 / b_bias=0 / direct=3 / weightb=1 / open_gop=0 / weightp=2 / keyint=250 / keyint_min=23 / scenecut=40 / intra_refresh=0 / rc_lookahead=40 / rc=2pass / mbtree=0 / bitrate=4480 / ratetol=1.0 / qcomp=0.60 / qpmin=0 / qpmax=69 / qpstep=4 / cplxblur=20.0 / qblur=0.5 / vbv_maxrate=50000 / vbv_bufsize=62500 / nal_hrd=none / ip_ratio=1.40 / pb_ratio=1.30 / aq=2:0.80
Language : English
Default : Yes
Forced : No
Matrix coefficients : BT.709-5, BT.1361, IEC 61966-2-4 709, SMPTE RP177
Audio #1
ID : 2
Format : AC-3
Format/Info : Audio Coding 3
Mode extension : CM (complete main)
Codec ID : A_AC3
Duration : 1h 56mn
Bit rate mode : Constant
Bit rate : 448 Kbps
Channel(s) : 6 channels
Channel positions : Front: L C R, Side: L R, LFE
Sampling rate : 48.0 KHz
Bit depth : 16 bits
Compression mode : Lossy
Stream size : 372 MiB (8%)
Title : Dub
Language : Russian
Default : Yes
Forced : No
Audio #2
ID : 3
Format : AC-3
Format/Info : Audio Coding 3
Mode extension : CM (complete main)
Codec ID : A_AC3
Duration : 1h 56mn
Bit rate mode : Constant
Bit rate : 448 Kbps
Channel(s) : 6 channels
Channel positions : Front: L C R, Side: L R, LFE
Sampling rate : 48.0 KHz
Bit depth : 16 bits
Compression mode : Lossy
Stream size : 372 MiB (8%)
Title : Eng
Language : English
Default : No
Forced : No
Text #1
ID : 4
Format : UTF-8
Codec ID : S_TEXT/UTF8
Codec ID/Info : UTF-8 Plain Text
Language : Russian
Default : No
Forced : No
Text #2
ID : 5
Format : UTF-8
Codec ID : S_TEXT/UTF8
Codec ID/Info : UTF-8 Plain Text
Language : Ukrainian
Default : No
Forced : No
Text #3
ID : 6
Format : UTF-8
Codec ID : S_TEXT/UTF8
Codec ID/Info : UTF-8 Plain Text
Title : «Киномания»
Language : Russian
Default : No
Forced : No
Text #4
ID : 7
Format : UTF-8
Codec ID : S_TEXT/UTF8
Codec ID/Info : UTF-8 Plain Text
Title : На расш. моменты перевода Гоблина
Language : Russian
Default : No
Forced : No
Text #5
ID : 8
Format : UTF-8
Codec ID : S_TEXT/UTF8
Codec ID/Info : UTF-8 Plain Text
Title : Комментарии создателей
Language : Russian
Default : No
Forced : No
Text #6
ID : 9
Format : ASS
Codec ID : S_TEXT/ASS
Codec ID/Info : Advanced Sub Station Alpha
Compression mode : Lossless
Language : English
Default : No
Forced : No
Menu
00:00:00.000 : en:Main Titles
00:03:27.330 : en:Usm Auriga
00:04:26.307 : en:Born Again
00:06:30.139 : en:Number 8
00:08:49.278 : en:An Unexpected Benefit
00:12:06.224 : en:Memories
00:15:03.527 : en:The Betty
00:19:25.538 : en:The Cargo Arrives
00:21:37.836 : en:The Deal
00:24:12.866 : en:Hosts
00:26:19.993 : en:A Little One-on-One
00:30:08.765 : en:Today's Lesson
00:32:19.560 : en:Snooping Around
00:37:16.692 : en:Caught
00:39:26.739 : en:The Escape
00:42:36.679 : en:"Evacuation."
00:46:30.661 : en:"Evacuation incomplet
Показать сообщения:    

Текущее время: Сегодня 18:28

Часовой пояс: GMT



Вы не можете начинать темы
Вы не можете отвечать на сообщения
Вы не можете редактировать свои сообщения
Вы не можете удалять свои сообщения
Вы не можете голосовать в опросах
Вы не можете прикреплять файлы к сообщениям
Вы не можете скачивать файлы