Ивановский Торрент трекер
Яндекс.Погода
Статистика раздачи
Размер:  3.79 GB   |    Зарегистрирован:  2 года 1 месяц   |    Скачан:  0 раз

Полного источника не было: Никогда

 
     
 
 
 

[Цитировать]
HUNTER

Чужая родня / Monsieur Batignole
Страна: Франция
Жанр: Комедия, Драма, Исторический
Год выпуска: 2002
Продолжительность: 01:39:41
Перевод: Профессиональный (многоголосый закадровый)
Cубтитры: нет
Оригинальная аудиодорожка: французский-Режиссер: Жерар Жуньо /Gerard Jugnot-В ролях: Жюль Ситрук, Жерар Жюньо, Мишель Гарсиа, Жан-Поль Рув, Алексия Порталь, Вайолетт Бланкер, Дафна Бевир, Гётц Бюргер, Элизабет Коммелен, Юбер Сен-Макари-Описание: Лето 1942 года. Франция оккупирована фашистской Германией. Но хозяина мясной лавки Эдмона Ботиньоля присутствие немецких солдат не слишком тяготит, он больше озабочен тем, что по ночам кто-то крадет из его подвала окорока и сосиски.
Его подозрения падают на соседского мальчишку Саймона из еврейской семьи. Когда нацисты начинают депортацию евреев, Ботиньоль не испытывает к ним особого сочувствия. Но однажды на пороге его дома появляется Саймон, сбежавший от немцев.
С этого момента флегматичный толстяк Ботиньоль начинает проявлять прямо-таки чудеса отваги и находчивости, чтобы спасти осиротевшего мальчика. Им предстоит совершить путешествие до швейцарской границы, полное опасных и порой забавных приключений, во время которого их взаимоотношения будут меняться от взаимной неприязни до крепкой и искренней дружбы.-Качество видео: BDRip
Формат видео: MKV
Видео: MPEG-4 AVC, 4513 Кбит/с, 1280x544, 25 кадр/с
Аудио 1: Русский 48 kHz (AC3, 2 ch, 192 Кбит/с)
Аудио 2: Французский 48 kHz (DTS, 6 ch, 755 Кбит/с)-

MI

Format                                   : Matroska
Format version                           : Version 4 / Version 2
File size                                : 3.79 GiB
Duration                                 : 1h 39mn
Overall bit rate                         : 5 447 Kbps
Encoded date                             : UTC 2015-10-19 06:19:42
Writing application                      : mkvmerge v8.3.0 ('Over the Horizon') 64bit
Writing library                          : libebml v1.3.1 + libmatroska v1.4.2
DURATION                                 : 01:39:40.726000000
NUMBER_OF_FRAMES                         : 560693
NUMBER_OF_BYTES                          : 564057158
_STATISTICS_WRITING_APP                  : mkvmerge v8.3.0 ('Over the Horizon') 64bit
_STATISTICS_WRITING_DATE_UTC             : 2015-10-19 06:19:42
_STATISTICS_TAGS                         : BPS DURATION NUMBER_OF_FRAMES NUMBER_OF_BYTES
Video
ID                                       : 1
Format                                   : AVC
Format/Info                              : Advanced Video Codec
Format profile                           : High@L4.1
Format settings, CABAC                   : Yes
Format settings, ReFrames                : 11 frames
Codec ID                                 : V_MPEG4/ISO/AVC
Duration                                 : 1h 39mn
Bit rate                                 : 4 513 Kbps
Width                                    : 1 280 pixels
Height                                   : 544 pixels
Display aspect ratio                     : 2.35:1
Frame rate                               : 25.000 fps
Color space                              : YUV
Chroma subsampling                       : 4:2:0
Bit depth                                : 8 bits
Scan type                                : Progressive
Bits/(Pixel*Frame)                       : 0.259
Stream size                              : 3.06 GiB (81%)
Writing library                          : x264 core 148 r2597 e86f3a1
Encoding settings                        : cabac=1 / ref=12 / deblock=1:-2:-1 / analyse=0x3:0x113 / me=umh / subme=9 / psy=1 / psy_rd=1.00:0.15 / mixed_ref=1 / me_range=32 / chroma_me=1 / trellis=2 / 8x8dct=1 / cqm=0 / deadzone=21,11 / fast_pskip=1 / chroma_qp_offset=-3 / threads=6 / lookahead_threads=1 / sliced_threads=0 / nr=0 / decimate=1 / interlaced=0 / bluray_compat=0 / constrained_intra=0 / bframes=12 / b_pyramid=1 / b_adapt=2 / b_bias=0 / direct=2 / weightb=1 / open_gop=1 / weightp=2 / keyint=250 / keyint_min=25 / scenecut=40 / intra_refresh=0 / rc_lookahead=40 / rc=2pass / mbtree=1 / bitrate=4513 / ratetol=10.0 / qcomp=0.60 / qpmin=0 / qpmax=69 / qpstep=4 / cplxblur=20.0 / qblur=0.5 / vbv_maxrate=62500 / vbv_bufsize=78125 / nal_hrd=none / filler=0 / ip_ratio=1.40 / aq=1:0.90
Language                                 : French
Default                                  : Yes
Forced                                   : No
Audio #1
ID                                       : 2
Format                                   : AC-3
Format/Info                              : Audio Coding 3
Mode extension                           : CM (complete main)
Codec ID                                 : A_AC3
Duration                                 : 1h 39mn
Bit rate mode                            : Constant
Bit rate                                 : 192 Kbps
Channel(s)                               : 2 channels
Channel positions                        : Front: L R
Sampling rate                            : 48.0 KHz
Bit depth                                : 16 bits
Compression mode                         : Lossy
Stream size                              : 137 MiB (4%)
Language                                 : Russian
Default                                  : Yes
Forced                                   : No
Audio #2
ID                                       : 3
Format                                   : DTS
Format/Info                              : Digital Theater Systems
Codec ID                                 : A_DTS
Duration                                 : 1h 39mn
Bit rate mode                            : Constant
Bit rate                                 : 755 Kbps
Channel(s)                               : 6 channels
Channel positions                        : Front: L C R, Side: L R, LFE
Sampling rate                            : 48.0 KHz
Bit depth                                : 24 bits
Compression mode                         : Lossy
Stream size                              : 538 MiB (14%)
Language                                 : French
Default                                  : No
Forced                                   : No

Скриншоты

[iv-torrents.ru].t51432.torrent
Торрент: Зарегистрирован [ 2015-11-09 07:14 ] · 94296AD8F8EE5DB507D098D5B3B39977C8324A1A

Скачать .torrent

Скачать

19 KB

Статус: проверено
Скачан: 0 раз
Размер: 3.79 GB
terms.php


Показать сообщения:    

Текущее время: 15-Дек 02:51

Часовой пояс: UTC ± 0


Вы не можете начинать темы
Вы не можете отвечать на сообщения
Вы не можете редактировать свои сообщения
Вы не можете удалять свои сообщения
Вы не можете голосовать в опросах
Вы не можете прикреплять файлы к сообщениям
Вы можете скачивать файлы

!ВНИМАНИЕ!
Сайт не предоставляет электронные версии произведений, а занимается лишь коллекционированием и каталогизацией ссылок, присылаемых и публикуемых на форуме нашими читателями. Если вы являетесь правообладателем какого-либо представленного материала и не желаете, чтобы ссылка на него находилась в нашем каталоге, свяжитесь с нами, и мы незамедлительно удалим ее. Файлы для обмена на трекере предоставлены пользователями сайта, и администрация не несет ответственности за их содержание. Просьба не заливать файлы, защищенные авторскими правами, а также файлы нелегального содержания!