Важное объявление!
У Нас Все раздачи мультитрекерные, при нуле пиров в релизах, можете смело вставать на закачку!
 
Автор Сообщение

HUNTER

Стаж:
4 года 7 месяцев
Сообщений:
61449

Репутация: 101

[+] [-]
Вне форума [Профиль] [ЛС]

Чудесный подарок снеговика / Magic Gift of the Snowman
Страна: США
Год выпуска: 1995
Жанр: Мультфильм, семейный, сказка
Продолжительность: 00:46:25
Перевод: Профессиональный (дублированный)
Русские субтитры: нет
Режиссёр: Тошиюки Хирума / Toshiyuki Hiruma, Такаши Масунага / Takashi Masunaga-Описание: Эмери Элизабет - маленькая девочка, которая больна и слабеет день ото дня. Но ее брат надеется помочь сестре. Каждый день он рассказывает ей сказку о Снеговике, который живет в волшебном царстве, где нет взрослых, где кровати сделаны из зефира и необыкновенные птички убаюкивают детей своим пением, а земля покрыта пушистым белым снегом... И однажды Снеговик оживает, он берет с собой Эмери и ее брата в свой волшебный мир в самое удивительное приключение. Эта волнующая сказка о том, что вера в чудо поможет воспарить на крыльях воображения и обрести надежду и счастье.- | Сэмпл | Совместный релиз: и -Качество: DVDRip (Исходник)
Формат: AVI
Видео: 688x512 (1.34:1), 25 fps, XviD ~1845 kbps, 0.21 bit/pixel
Аудио 1: 48.0 KHz, AC3, 2 ch, 192 Kbps, Русский
Аудио 2: 48.0 KHz, AC3, 2 ch, 192 Kbps, Английский
Субтитры: отсутствуют

MediaInfo

GeneralComplete name : Magic Gift of the Snowman_DVDRip_Olu6ka.aviFormat : AVIFormat/Info : Audio Video InterleaveFile size : 746 MiBDuration : 46mn 25sOverall bit rate : 2 245 KbpsWriting application : VirtualDubModRus 1.5.10.2 (build 2542/release)Writing library : VirtualDubMod build 2542/release
VideoID : 0Format : MPEG-4 VisualFormat profile : Advanced Simple@L5Format settings, BVOP : 1Format settings, QPel : NoFormat settings, GMC : No warppointsFormat settings, Matrix : CustomCodec ID : XVIDCodec ID/Hint : XviDDuration : 46mn 25sBit rate : 1 847 KbpsWidth : 688 pixelsHeight : 512 pixelsDisplay aspect ratio : 4:3Frame rate : 25.000 fpsColor space : YUVChroma subsampling : 4:2:0Bit depth : 8 bitsScan type : ProgressiveCompression mode : LossyBits/(Pixel*Frame) : 0.210Stream size : 613 MiB (82%)Writing library : XviD 73
Audio #1ID : 1Format : AC-3Format/Info : Audio Coding 3Mode extension : CM (complete main)Format settings, Endianness : BigCodec ID : 2000Duration : 46mn 25sBit rate mode : ConstantBit rate : 192 KbpsChannel count : 2 channelsChannel positions : Front: L RSampling rate : 48.0 KHzBit depth : 16 bitsCompression mode : LossyDelay relative to video : 8msStream size : 63.8 MiB (9%)Alignment : Split accross interleavesInterleave, duration : 40 ms (1.00 video frame)Interleave, preload duration : 500 ms
Audio #2ID : 2Format : AC-3Format/Info : Audio Coding 3Mode extension : CM (complete main)Format settings, Endianness : BigCodec ID : 2000Duration : 46mn 25sBit rate mode : ConstantBit rate : 192 KbpsChannel count : 2 channelsChannel positions : Front: L RSampling rate : 48.0 KHzBit depth : 16 bitsCompression mode : LossyStream size : 63.8 MiB (9%)Alignment : Split accross interleavesInterleave, duration : 40 ms (1.00 video frame)Interleave, preload duration : 500 ms

_________________
Показать сообщения:    

Текущее время: Сегодня 21:09

Часовой пояс: GMT



Вы не можете начинать темы
Вы не можете отвечать на сообщения
Вы не можете редактировать свои сообщения
Вы не можете удалять свои сообщения
Вы не можете голосовать в опросах
Вы не можете прикреплять файлы к сообщениям
Вы не можете скачивать файлы
Наши партнеры: интернет магазин Ивановского трикотажа textilla.ru