Ивановский Торрент трекер
Яндекс.Погода
 

[Цитировать]
HUNTER

Чудесный лес / Заколдованный лес / Cudesna suma / The Elm-Chanted Forest
Страна: Югославия, США
Жанр: фэнтези
Продолжительность: 01:18:11
Год выпуска: 1986
Перевод 1: Профессиональный (дублированный) Мосфильм
Перевод 2: Авторский (одноголосый закадровый) Антон Алексеев отдельным файлом
Русские субтитры: нет
Режиссёр: Милан Блазекович / Milan Blazekovic, Доро Владо Хрельянович / Doro Vlado Hreljanovic
Описание: Заснув под Заколдованным Вязом, художник Питер Палитра обнаруживает при пробуждении, что кисточка его стала волшебной, а сам он теперь понимает язык животных. С этого момента начинаются приключения Питера в Чудесном Лесу, где он сразу становится знаменитостью и находит новых друзей: деловитого бобра, бывшего чемпиона медведя, очаровательную лису, веселых ежат и многих других зверей и птиц. А тем временем злой царь Кактус вовсю строит планы по уничтожению Леса. Узнав о появлении человека, предсказанном в старом Пророчестве, тиран приказывает своему помощнику чародею Палочке избавиться от художника. Питеру и его друзьям предстоит спасти Лес от разрушения, столкнуться с Алебардами — зловещими слугами царя Кактуса, и разгадать главный его секрет.
Доп. информация: Звук синхронизирован заново, с первоисточников VHSRip от hedge86 и TMklr, поскольку прежде чем попасть на DVD его уже несколько раз пересводили.
Семпл: http://multi-up.com/1007808
Качество: DVDRip Исходник
Формат: MKV
Видео: 692x572 (1.287) @ 736x572, 25.000 fps, AVC, ~2450 Kbps, 0.248 bits/pixel
Аудио 1: Russian, 48.0 KHz, AC3, 2 ch, 192 Kbps Мосфильм
Аудио 2: Russian, 48.0 KHz, AC3, 2 ch, 192 Kbps Антон Алексеев отдельным файлом
Аудио 3: English, 48.0 KHz, AC3, 2 ch, 192 Kbps отдельным файлом
Субтитры: отсутствуют

log

avs4x264.exe: -L x264_64.exe --pass 2 --bitrate 2450 --preset medium --ref 10 --deblock -1:-1 --merange 32 --bframes 10 --direct auto --b-adapt 2 --trellis 2 --no-fast-pskip --psy-rd 1.00:0.10 --partitions all --subme 10 --me umh --rc-lookahead 50 --sar 184:173 --stats "C:\Users\1\Desktop\T01.log" --output "C:\Users\1\Desktop\T01.mp4" "C:\Temp\0376.avs"
raw [info]: 692x572p 184:173 @ 25/1 fps (cfr)
x264 [info]: using SAR=184/173
x264 [info]: using cpu capabilities: MMX2 SSE2Fast LZCNT
x264 [info]: profile High, level 3.1
x264 [info]: frame I:817 Avg QP:19.03 size: 69002
x264 [info]: frame P:30490 Avg QP:22.15 size: 24303
x264 [info]: frame B:85969 Avg QP:24.86 size: 7437
x264 [info]: consecutive B-frames: 2.8% 3.8% 13.5% 44.6% 20.5% 9.2% 2.8% 1.0% 0.6% 0.8% 0.3%
x264 [info]: mb I I16..4: 1.1% 82.3% 16.7%
x264 [info]: mb P I16..4: 0.5% 14.0% 2.3% P16..4: 44.2% 22.4% 14.3% 0.4% 0.1% skip: 1.7%
x264 [info]: mb B I16..4: 0.0% 1.5% 0.4% B16..8: 43.1% 10.1% 2.8% direct: 8.5% skip:33.7% L0:42.7% L1:47.2% BI:10.0%
x264 [info]: 8x8 transform intra:82.3% inter:71.3%
x264 [info]: direct mvs spatial:97.7% temporal:2.3%
x264 [info]: coded y,uvDC,uvAC intra: 93.1% 86.7% 44.6% inter: 35.7% 34.7% 2.7%
x264 [info]: i16 v,h,dc,p: 27% 24% 18% 32%
x264 [info]: i8 v,h,dc,ddl,ddr,vr,hd,vl,hu: 8% 9% 6% 11% 14% 12% 13% 12% 14%
x264 [info]: i4 v,h,dc,ddl,ddr,vr,hd,vl,hu: 9% 15% 2% 9% 14% 13% 14% 11% 13%
x264 [info]: i8c dc,h,v,p: 30% 26% 23% 21%
x264 [info]: Weighted P-Frames: Y:26.3% UV:11.5%
x264 [info]: ref P L0: 37.4% 13.8% 16.7% 7.2% 5.8% 4.6% 4.3% 3.0% 2.9% 2.8% 1.2% 0.2%
x264 [info]: ref B L0: 70.7% 13.6% 4.5% 3.3% 2.1% 2.0% 1.6% 1.4% 0.7%
x264 [info]: ref B L1: 95.1% 4.9%
x264 [info]: kb/s:2450.13
x264 [total]: encoded 117276 frames, 10.63 fps, 2450.13 kb/s

Подробные технические данные

GeneralUnique ID : 179407826156783975561736974087548824986 (0x86F8B0C25517AB78ADEA01292D87ED9A)Complete name : C:\The Elm-Chanted Forest\The Elm-Chanted Forest.mkvFormat : MatroskaFormat version : Version 4 / Version 2File size : 1.44 GiBDuration : 1h 18mnOverall bit rate : 2 644 KbpsEncoded date : UTC 2014-10-22 10:31:59Writing application : mkvmerge v7.2.0 ('On Every Street') 64bit built on Sep 13 2014 15:52:10Writing library : libebml v1.3.0 + libmatroska v1.4.1DURATION : 01:18:09.024000000NUMBER_OF_FRAMES : 146532NUMBER_OF_BYTES : 112536576_STATISTICS_WRITING_APP : mkvmerge v7.2.0 ('On Every Street') 64bit built on Sep 13 2014 15:52:10_STATISTICS_WRITING_DATE_UTC : 2014-10-22 10:31:59_STATISTICS_TAGS : BPS DURATION NUMBER_OF_FRAMES NUMBER_OF_BYTES
VideoID : 1Format : AVCFormat/Info : Advanced Video CodecFormat profile : High@L3.1Format settings, CABAC : YesFormat settings, ReFrames : 10 framesCodec ID : V_MPEG4/ISO/AVCDuration : 1h 18mnBit rate : 2 450 KbpsWidth : 692 pixelsHeight : 572 pixelsDisplay aspect ratio : 1.287Frame rate mode : ConstantFrame rate : 25.000 fpsColor space : YUVChroma subsampling : 4:2:0Bit depth : 8 bitsScan type : ProgressiveBits/(Pixel*Frame) : 0.248Stream size : 1.31 GiB (91%)Writing library : x264 core 142 r2479 dd79a61Encoding settings : cabac=1 / ref=10 / deblock=1:-1:-1 / analyse=0x3:0x133 / me=umh / subme=10 / psy=1 / psy_rd=1.00:0.10 / mixed_ref=1 / me_range=32 / chroma_me=1 / trellis=2 / 8x8dct=1 / cqm=0 / deadzone=21,11 / fast_pskip=0 / chroma_qp_offset=-3 / threads=6 / lookahead_threads=1 / sliced_threads=0 / nr=0 / decimate=1 / interlaced=0 / bluray_compat=0 / constrained_intra=0 / bframes=10 / b_pyramid=2 / b_adapt=2 / b_bias=0 / direct=3 / weightb=1 / open_gop=0 / weightp=2 / keyint=250 / keyint_min=25 / scenecut=40 / intra_refresh=0 / rc_lookahead=50 / rc=2pass / mbtree=1 / bitrate=2450 / ratetol=1.0 / qcomp=0.60 / qpmin=0 / qpmax=69 / qpstep=4 / cplxblur=20.0 / qblur=0.5 / ip_ratio=1.40 / aq=1:1.00Default : YesForced : No
AudioID : 2Format : AC-3Format/Info : Audio Coding 3Mode extension : CM (complete main)Format settings, Endianness : BigCodec ID : A_AC3Duration : 1h 18mnBit rate mode : ConstantBit rate : 192 KbpsChannel(s) : 2 channelsChannel positions : Front: L RSampling rate : 48.0 KHzBit depth : 16 bitsCompression mode : LossyStream size : 107 MiB (7%)Language : RussianDefault : YesForced : No
Menu00:00:00.000 : :Chapter 0100:02:47.960 : :Chapter 0200:05:58.000 : :Chapter 0300:10:03.920 : :Chapter 0400:15:54.680 : :Chapter 0500:21:02.040 : :Chapter 0600:30:35.360 : :Chapter 0700:34:33.720 : :Chapter 0800:40:03.200 : :Chapter 0900:56:30.720 : :Chapter 1001:01:41.280 : :Chapter 1101:14:44.120 : :Chapter 12

Скриншоты

Показать сообщения:    

Текущее время: 26-Сен 04:42

Часовой пояс: UTC - 1


Вы не можете начинать темы
Вы не можете отвечать на сообщения
Вы не можете редактировать свои сообщения
Вы не можете удалять свои сообщения
Вы не можете голосовать в опросах
Вы не можете прикреплять файлы к сообщениям
Вы не можете скачивать файлы

!ВНИМАНИЕ!
Сайт не предоставляет электронные версии произведений, а занимается лишь коллекционированием и каталогизацией ссылок, присылаемых и публикуемых на форуме нашими читателями. Если вы являетесь правообладателем какого-либо представленного материала и не желаете, чтобы ссылка на него находилась в нашем каталоге, свяжитесь с нами, и мы незамедлительно удалим ее. Файлы для обмена на трекере предоставлены пользователями сайта, и администрация не несет ответственности за их содержание. Просьба не заливать файлы, защищенные авторскими правами, а также файлы нелегального содержания!