Ивановский Торрент трекер
Яндекс.Погода
 

[Цитировать]
HUNTER

Чудесная ночь в Сплите
Ta divna Splitska noć- Страна: Хорватия
Студия: Alka-Film Zagreb
Жанр: психоделическая музыкальная драма
Год выпуска: 2004
Продолжительность: 01:37:00Перевод: Профессиональный (многоголосый закадровый) Видеоимпульс
Cубтитры: нет
Оригинальная аудиодорожка: хорватский
Режиссер: Арсен Антон Остойич / Arsen Anton Ostojic
В ролях: Дино Дворник / Dino Dvornik (Singer), Младен Вулич / Mladen Vulic (Nike), Кулио / Coolio (Franky), Майкл Клезич / Michael Klesic (Steve), Нивес Иванкович / Nives Ivankovic (Marija), Ивана Роскич / Ivana Roscic (Andela)
Описание: Как часто мы куда-то убегаем за счастьем, когда оно здесь, совсем рядом, и никуда лететь, сломя голову, не надо. Стоит просто протянуть руку и вот оно – будущее. Будущее, лишенное страха и одиночества, смерти и отчаяния. Но мы бежим, порождая собственную обреченность, и этот бег кажется нам бесконечным. Три истории, рассказанные создателями фильма, это истории о людях, дороги жизни которых переплелись с дорогами смерти за два часа до наступления Нового Счастья.
Доп. информация: Награды: 2 премии Sarajevo Film Festival 2004 (Специальный приз жюри, лучшая актриса - Marija Skaricic); 2 приза "Золотая арена" Pula Film Festival 2004 (лучший оператор, монтаж); 2 номинации на премию "Феликс" European Film Awards 2004 ("Открытие года", лучший 1-й и 2-й европейский фильм года) + номинация на премию Фассбиндера; номинация на премию "Золотая лягушка" Camerimage 2005 за лучшую операторскую работу; др. награды.

Бонусы: Информация о режиссёре; анонсы - Смотрите на DVD.
Меню: статичное озвученное
Тип релиза: DVD5
Контейнер: DVD-Video
Видео: PAL 16:9 (720x576) VBR, Auto Letterboxed, 25 fps, ~4957 kbps avg, 0.478 bit/pixel
Аудио 1: AC3, 2 ch, 48 kHz, 192.00 kbps - русский
Аудио 2: AC3, 2 ch, 48 kHz, 192.00 kbps - хорватский

MediaInfo

Title: [apreder]Ta_divna_Splitska_noc(2004)DVD5Size: 3.69 Gb ( 3 873 512,00 KBytes ) - DVD-5Enabled regions: 1, 2, 3, 4, 5, 6
VTS_01 : Play Length: 00:00:08 Video: PAL 4:3 (720x576) VBR Audio: English (Dolby AC3, 2 ch) English (Dolby AC3, 2 ch)
VTS_02 : Play Length: 01:37:00 Video: PAL 16:9 (720x576) VBR, Auto Letterboxed Audio: Russian (Dolby AC3, 2 ch) Hrvatski (Dolby AC3, 2 ch)Audio #1: AC3, 2/0 (L,R) ch, 192 kbps, Delay 0 mSecAudio #2: AC3, 2/0 (L,R) ch, 192 kbps, Delay 0 mSec
* Menus Information *
VIDEO_TS MenuVideo: PAL 4:3 (720x576) VBREnglish Language Unit : Title Menu
VTS_01 MenuVideo: PAL 4:3 (720x576) VBREnglish Language Unit : Root Menu
VTS_02 MenuVideo: PAL 16:9 (720x576) VBR Auto LetterboxedAudio: Not specified (Dolby AC3, 2 ch)English Language Unit : Root Menu Audio Menu Chapter (PTT)Menu
ОбщееПолное имя : F:\My Torrents 3\[apreder]Ta_divna_Splitska_noc(2004)DVD5\VIDEO_TS\VTS_02_1.VOBФормат : MPEG-PSРазмер файла : 1024 МбайтПродолжительность : 26 м.Режим общего битрейта : ПеременныйОбщий поток : 5449 Кбит/сек
ВидеоИдентификатор : 224 (0xE0)Формат : MPEG VideoВерсия формата : Version 2Профиль формата : Main@MainПараметр BVOP формата : ДаПараметр матрицы формата : ВыборочнаяПараметр GOP формата : M=3, N=12Format_Settings_PictureStructure : FrameПродолжительность : 26 м.Вид битрейта : ПеременныйБитрейт : 4957 Кбит/секМаксимальный битрейт : 7300 Кбит/секШирина : 720 пикселейВысота : 576 пикселейСоотношение сторон : 16:9Частота кадров : 25,000 кадров/секСтандарт вещания : PALЦветовое пространство : YUVСубдискретизация насыщенности : 4:2:0Битовая глубина : 8 битТип развёртки : ЧересстрочнаяПорядок развёртки : Верхнее поле первоеМетод сжатия : С потерямиБит/(Пиксели*Кадры) : 0.478Временной код первого кадра : 10:00:00:00Оригинал временного кода : Group of pictures headerРазмер потока : 931 Мбайт (91%)
Аудио #1Идентификатор : 189 (0xBD)-128 (0x80)Формат : AC-3Формат/Информация : Audio Coding 3Расширение режима : CM (complete main)Параметр Endianness формата : BigРежим смешивания : DVD-VideoПродолжительность : 26 м.Вид битрейта : ПостоянныйБитрейт : 192 Кбит/секКаналы : 2 каналаРасположение каналов : Front: L RЧастота : 48,0 КГцМетод сжатия : С потерямиРазмер потока : 36,1 Мбайт (4%)
Аудио #2Идентификатор : 189 (0xBD)-129 (0x81)Формат : AC-3Формат/Информация : Audio Coding 3Расширение режима : CM (complete main)Параметр Endianness формата : BigРежим смешивания : DVD-VideoПродолжительность : 26 м.Вид битрейта : ПостоянныйБитрейт : 192 Кбит/секКаналы : 2 каналаРасположение каналов : Front: L RЧастота : 48,0 КГцМетод сжатия : С потерямиРазмер потока : 36,1 Мбайт (4%)
Меню

Скриншоты меню

Скриншоты



Резервные скриншоты

Скриншоты доп. материалов

- [2'615]
Показать сообщения:    

Текущее время: 18-Окт 10:17

Часовой пояс: UTC - 1


Вы не можете начинать темы
Вы не можете отвечать на сообщения
Вы не можете редактировать свои сообщения
Вы не можете удалять свои сообщения
Вы не можете голосовать в опросах
Вы не можете прикреплять файлы к сообщениям
Вы не можете скачивать файлы

!ВНИМАНИЕ!
Сайт не предоставляет электронные версии произведений, а занимается лишь коллекционированием и каталогизацией ссылок, присылаемых и публикуемых на форуме нашими читателями. Если вы являетесь правообладателем какого-либо представленного материала и не желаете, чтобы ссылка на него находилась в нашем каталоге, свяжитесь с нами, и мы незамедлительно удалим ее. Файлы для обмена на трекере предоставлены пользователями сайта, и администрация не несет ответственности за их содержание. Просьба не заливать файлы, защищенные авторскими правами, а также файлы нелегального содержания!