Ивановский Торрент трекер
Яндекс.Погода
 

[Цитировать]
HUNTER

Чудеса и аномалии Великой войны
Год выпуска: 2012
Страна: Россия
Выпущено: ЭКСПЕРТ-ТВ
Жанр: Документальный, война, история
Продолжительность: 00:33:43
Перевод: Не требуется
Русские субтитры: нет

Режиссер: Роман Карапетян
Описание: В 1941–1945 годах события пошли по наименее вероятному из возможных вариантов. Более логичным результатом советско-германского противоборства стал бы Брест-Литовский мир-2 в 1942 году. Документальный фильм о необычных фактах, которые предопределили ход и развитие Великой отечественной войны. Например, рассказывается об ошибках немецкого командования, которое превратило войну с экономическими целями – в борьбу за советскую столицу. Или о судьбоносной встрече простой русской девушки с японским журналистом, благодаря чему удалось отбить атаки фашистов на Москву. В фильме публикуются малоизвестные данные и сенсационные материалы...

Доп. информация: Рип: alf62
качество: SATRip
формат: AVI
Видео: 720x400 (1.80:1), 25 fps, XviD build 73 ~1369 kbps avg, 0.19 bit/pixel
Аудио: 44.100 kHz, MPEG Layer 3, 2 ch, ~128.00 kbps avg

MediaInfo

Complete name : Chudesa.i.anomalii.Velikoj.Vojny.2012.DivX.SATRip.alf62.avi
Format : AVI
Format/Info : Audio Video Interleave
File size : 364 MiB
Duration : 33mn 43s
Overall bit rate : 1 508 Kbps
Writing application : VirtualDubMod 1.5.10.3 | www.virtualdub-fr.org || (build 2550/release)
Writing library : VirtualDubMod build 2550/release
Video
ID : 0
Format : MPEG-4 Visual
Format profile : Advanced Simple@L5
Format settings, BVOP : Yes
Format settings, QPel : No
Format settings, GMC : No warppoints
Format settings, Matrix : Default (MPEG)
Codec ID : DX50
Codec ID/Hint : DivX 5
Duration : 33mn 43s
Bit rate : 1 370 Kbps
Width : 720 pixels
Height : 400 pixels
Display aspect ratio : 16:9
Frame rate : 25.000 fps
Color space : YUV
Chroma subsampling : 4:2:0
Bit depth : 8 bits
Scan type : Progressive
Compression mode : Lossy
Bits/(Pixel*Frame) : 0.190
Stream size : 330 MiB (91%)
Writing library : XviD 73
Audio
ID : 1
Format : MPEG Audio
Format version : Version 1
Format profile : Layer 3
Codec ID : 55
Codec ID/Hint : MP3
Duration : 33mn 43s
Bit rate mode : Constant
Bit rate : 128 Kbps
Channel count : 2 channels
Sampling rate : 44.1 KHz
Compression mode : Lossy
Stream size : 30.9 MiB (8%)
Alignment : Split accross interleaves
Interleave, duration : 40 ms (1.00 video frame)
Interleave, preload duration : 500 ms
Writing library : LAME3.99r
Encoding settings : -m s -V 4 -q 2 -lowpass 17 -b 128
- -
Показать сообщения:    

Текущее время: 23-Окт 01:39

Часовой пояс: UTC - 1


Вы не можете начинать темы
Вы не можете отвечать на сообщения
Вы не можете редактировать свои сообщения
Вы не можете удалять свои сообщения
Вы не можете голосовать в опросах
Вы не можете прикреплять файлы к сообщениям
Вы не можете скачивать файлы

!ВНИМАНИЕ!
Сайт не предоставляет электронные версии произведений, а занимается лишь коллекционированием и каталогизацией ссылок, присылаемых и публикуемых на форуме нашими читателями. Если вы являетесь правообладателем какого-либо представленного материала и не желаете, чтобы ссылка на него находилась в нашем каталоге, свяжитесь с нами, и мы незамедлительно удалим ее. Файлы для обмена на трекере предоставлены пользователями сайта, и администрация не несет ответственности за их содержание. Просьба не заливать файлы, защищенные авторскими правами, а также файлы нелегального содержания!