Важное объявление!
У Нас Все раздачи мультитрекерные, при нуле пиров в релизах, можете смело вставать на закачку!
Статистика раздачи
Размер:     |    Зарегистрирован:     |    Скачан:     |   
Нет
 
     
 
 
Автор Сообщение

HUNTER

Стаж:
5 лет
Сообщений:
68053

Репутация: 101

[+] [-]
Вне форума [Профиль] [ЛС]

Что скажут люди / Повод для сплетен / Люди будут судачить / People Will Talk
Страна: США
Студия: 20th Century Fox Film Corporation
Жанр: комедия
Год выпуска: 1951
Продолжительность: 01:50:06
Перевод: Профессиональный (многоголосый закадровый)
Cубтитры: английские
Оригинальная аудиодорожка: английский
Режиссер: Джозеф Л. Манкевич / Joseph L. Mankiewicz
В ролях: Кэри Грант, Джинн Крейн, Финлэй Карри, Хьюм Кронин, Уолтер Слезак, Сидни Блэкмер, Basil Ruysdael, Кэтерин Лок, Бесс Флауэрс, Стюарт Холмс
Описание: Доктора Ноа Преториус, молодой врач-энтузиаст, считающий, что лечить больных можно и нужно разумным подходом к ним, а не массивными дозами лекарств. Его позиция, что лечить надо пациента, а не болезнь приводит в восторг начальство, но ужасает коллег, которые предпочитают традиционные методы лечения. Доктор преподает в медицинском училище и живет, по мнению многих, странной жизнью.
Профессор Элуэлл, коллега Преториуса, мрачный инструктор по анатомии, не любит его. Ему самому больше нравится резать трупы, чем беседовать с людьми. В перерывах между занятиями доктор Преториус дирижирует школьным оркестром, исполняя Вагнера и Брамса. Элуэлл плетет интриги и сообщает декану Лаймэну Брокуэллу интересные факты о медицинском прошлом доктора Преториуса. Ему приходится защищаться.
Доп. информация: Рип скачан с зарубежного трекера, русская многоголосая дорожка (Ирина Савина, Павел Кипнис, Дмитрий Полонский) отсюда.

Sample
Тип релиза: WEB-DL 720p SbR
Контейнер: MKV
Видео: MPEG4 AVC Video, H264, 4:3, 960x720, 23,976 fps, 4155 kbps
Аудио: Russian (AC3, 2 ch, 192 kbps, 16 bits, 48.0 KHz) - MVO
Аудио 2: English (AC3, 2 ch, 192 kbps, 16 bits, 48.0 KHz) - оригинал
Формат субтитров: softsub (SRT)
MediaInfo
General
Unique ID : 192692184676390617334455713510124895722 (0x90F72A33B9ADEC74ABA06B8DBC6F3DEA)
Complete name : E:\1\People.Will.Talk.1951.720p.WEB-DL.SbR.mkv
Format : Matroska
Format version : Version 4 / Version 2
File size : 3.56 GiB
Duration : 1h 50mn
Overall bit rate : 4 631 Kbps
Encoded date : UTC 2014-05-12 18:05:13
Writing application : mkvmerge v6.1.0 ('Old Devil') built on Mar 2 2013 14:32:37
Writing library : libebml v1.3.0 + libmatroska v1.4.0
Video
ID : 1
Format : AVC
Format/Info : Advanced Video Codec
Format profile : Main@L3.1
Format settings, CABAC : No
Format settings, ReFrames : 2 frames
Codec ID : V_MPEG4/ISO/AVC
Duration : 1h 50mn
Bit rate : 4 155 Kbps
Width : 960 pixels
Height : 720 pixels
Display aspect ratio : 4:3
Frame rate mode : Constant
Frame rate : 23.976 fps
Color space : YUV
Chroma subsampling : 4:2:0
Bit depth : 8 bits
Scan type : Progressive
Bits/(Pixel*Frame) : 0.251
Stream size : 3.20 GiB (90%)
Language : English
Default : Yes
Forced : No
Color primaries : BT.709
Transfer characteristics : BT.709
Matrix coefficients : BT.709
Audio #1
ID : 2
Format : AC-3
Format/Info : Audio Coding 3
Mode extension : CM (complete main)
Format settings, Endianness : Big
Codec ID : A_AC3
Duration : 1h 50mn
Bit rate mode : Constant
Bit rate : 192 Kbps
Channel count : 2 channels
Channel positions : Front: L R
Sampling rate : 48.0 KHz
Bit depth : 16 bits
Compression mode : Lossy
Stream size : 151 MiB (4%)
Language : Russian
Default : Yes
Forced : Yes
Audio #2
ID : 3
Format : AC-3
Format/Info : Audio Coding 3
Mode extension : CM (complete main)
Format settings, Endianness : Big
Codec ID : A_AC3
Duration : 1h 50mn
Bit rate mode : Constant
Bit rate : 192 Kbps
Channel count : 2 channels
Channel positions : Front: L R
Sampling rate : 48.0 KHz
Bit depth : 16 bits
Compression mode : Lossy
Stream size : 151 MiB (4%)
Language : English
Default : No
Forced : No
Text
ID : 4
Format : UTF-8
Codec ID : S_TEXT/UTF8
Codec ID/Info : UTF-8 Plain Text
Language : English
Default : No
Forced : No
Menu
00:00:00.000 : en:Chapter 01
00:02:20.000 : en:Chapter 02
00:08:30.000 : en:Chapter 03
00:13:00.000 : en:Chapter 04
00:27:48.000 : en:Chapter 05
00:33:11.000 : en:Chapter 06
00:36:31.000 : en:Chapter 07
00:43:38.000 : en:Chapter 08
00:54:13.000 : en:Chapter 09
00:57:23.000 : en:Chapter 10
01:03:34.000 : en:Chapter 11
01:05:42.000 : en:Chapter 12
01:09:39.000 : en:Chapter 13
01:15:14.000 : en:Chapter 14
01:26:47.000 : en:Chapter 15
01:34:40.000 : en:Chapter 16
01:44:16.000 : en:Chapter 17
01:47:17.000 : en:Chapter 18
Скриншоты

_________________
Показать сообщения:    

Текущее время: Сегодня 06:58

Часовой пояс: GMT



Вы не можете начинать темы
Вы не можете отвечать на сообщения
Вы не можете редактировать свои сообщения
Вы не можете удалять свои сообщения
Вы не можете голосовать в опросах
Вы не можете прикреплять файлы к сообщениям
Вы не можете скачивать файлы