Важное объявление!
У Нас Все раздачи мультитрекерные, при нуле пиров в релизах, можете смело вставать на закачку!
 
Автор Сообщение

HUNTER

Стаж:
4 года 11 месяцев
Сообщений:
66039

Репутация: 101

[+] [-]
Вне форума [Профиль] [ЛС]

Что за путь! / Так держать! / What a Way to Go!
Страна: США
Жанр: мелодрама, комедия
Год выпуска: 1964
Продолжительность: 01:50:55
Перевод 1: Профессиональный (многоголосый закадровый) - Первый канал
Перевод 2: Профессиональный (двухголосый закадровый) - РенТВ
Cубтитры: английские
Оригинальная аудиодорожка: английский
Режиссер: Дж. Ли Томпсон / J. Lee Thompson
В ролях: Ширли МакЛейн, Пол Ньюман, Роберт Митчум, Дин Мартин, Джин Келли, Роберт Каммингс, Дик Ван Дайк, Реджинальд Гардинер, Маргарет Дюмон, Лу Нова
Описание: Луиза Мей Фостер романтичная молодая женщина, которая мечтает выйти замуж по любви, а не за деньги. Однако на ней словно лежит проклятье, потому что все ее мужья — так или иначе — не могут устоять перед соблазном богатства, известности или власти, тратят все свои силы на это и в результате умирают, оставляя Луизу богатой и несчатной вдовой. Луиза выходит замуж четыре раза, и каждый очередной муж оставляет ее всё более богатой. Луизе же эти деньги совсем не нужны, ей хочется простого женского семейного счастья…
Доп. информация:


За дорожку с переводом Первого канала спасибо problesk
За дорожку с переводом РенТВ спасибо Austin-ozon (качество дорожки, к сожалению, не очень)
Сэмпл: http://sendfile.su/1054885
Тип релиза: WEB-DL 720p
Контейнер: MKV
Видео: AVC, 1280x542, L3.1, 23.976fps, 3853kbps
Аудио 1: Russian: AC3, 48000Hz, 2ch, 192kbps - Первый канал
Аудио 2: Russian: AC3, 48000Hz, 2ch, 192kbps - РенТВ
Аудио 3: English: AC3, 48000Hz, 2ch, 192kbps - DVD
Аудио 4: English: AAC, 48000Hz, 2ch, 132kbps - WEB-DL
Формат субтитров: softsub (SRT)

MediaInfo

Общее
Уникальный идентификатор : 196269294799618547753288735037310385209 (0x93A8175900E33D4C84401FBCE41C3C39)
Полное имя : T:\What a Way to Go! (WEB-DL 720p).mkv
Формат : Matroska
Версия формата : Version 4 / Version 2
Размер файла : 3,53 Гбайт
Продолжительность : 1 ч. 50 м.
Общий поток : 4561 Кбит/сек
Название фильма : What a Way to Go! for rutracker.org
Дата кодирования : UTC 2014-11-30 05:01:22
Программа кодирования : mkvmerge v6.9.1 ('Blue Panther') 64bit built on Apr 18 2014 18:23:38
Библиотека кодирования : libebml v1.3.0 + libmatroska v1.4.1
Видео
Идентификатор : 1
Формат : AVC
Формат/Информация : Advanced Video Codec
Профиль формата : Main@L3.1
Параметр CABAC формата : Нет
Параметр ReFrames формата : 2 кадра
Идентификатор кодека : V_MPEG4/ISO/AVC
Продолжительность : 1 ч. 50 м.
Ширина : 1280 пикселей
Высота : 542 пикселя
Соотношение сторон : 2,35:1
Режим частоты кадров : Постоянный
Частота кадров : 23,976 кадра/сек
Цветовое пространство : YUV
Субдискретизация насыщенности : 4:2:0
Битовая глубина : 8 бит
Тип развёртки : Прогрессивная
Язык : English
Default : Да
Forced : Нет
Основные цвета : BT.709
Характеристики трансфера : BT.709
Коэффициенты матрицы : BT.709
Аудио #1
Идентификатор : 2
Формат : AC-3
Формат/Информация : Audio Coding 3
Расширение режима : CM (complete main)
Параметр Endianness формата : Big
Идентификатор кодека : A_AC3
Продолжительность : 1 ч. 50 м.
Вид битрейта : Постоянный
Битрейт : 192 Кбит/сек
Каналы : 2 канала
Расположение каналов : Front: L R
Частота : 48,0 КГц
Битовая глубина : 16 бит
Метод сжатия : С потерями
Размер потока : 152 Мбайт (4%)
Заголовок : Первый канал
Язык : Russian
Default : Да
Forced : Нет
Аудио #2
Идентификатор : 3
Формат : AC-3
Формат/Информация : Audio Coding 3
Расширение режима : CM (complete main)
Параметр Endianness формата : Big
Идентификатор кодека : A_AC3
Продолжительность : 1 ч. 50 м.
Вид битрейта : Постоянный
Битрейт : 192 Кбит/сек
Каналы : 2 канала
Расположение каналов : Front: L R
Частота : 48,0 КГц
Битовая глубина : 16 бит
Метод сжатия : С потерями
Размер потока : 152 Мбайт (4%)
Заголовок : РенТВ
Язык : Russian
Default : Нет
Forced : Нет
Аудио #3
Идентификатор : 4
Формат : AC-3
Формат/Информация : Audio Coding 3
Расширение режима : CM (complete main)
Параметр Endianness формата : Big
Идентификатор кодека : A_AC3
Продолжительность : 1 ч. 50 м.
Вид битрейта : Постоянный
Битрейт : 192 Кбит/сек
Каналы : 2 канала
Расположение каналов : Front: L R
Частота : 48,0 КГц
Битовая глубина : 16 бит
Метод сжатия : С потерями
Размер потока : 152 Мбайт (4%)
Заголовок : DVD
Язык : English
Default : Нет
Forced : Нет
Аудио #4
Идентификатор : 5
Формат : AAC
Формат/Информация : Advanced Audio Codec
Профиль формата : LC
Идентификатор кодека : A_AAC
Продолжительность : 1 ч. 50 м.
Каналы : 2 канала
Расположение каналов : Front: L R
Частота : 48,0 КГц
Метод сжатия : С потерями
Заголовок : WEB-DL
Язык : English
Default : Нет
Forced : Нет
Текст
Идентификатор : 6
Формат : UTF-8
Идентификатор кодека : S_TEXT/UTF8
Идентификатор кодека/Информация : UTF-8 Plain Text
Язык : English
Default : Нет
Forced : Нет
Меню
00:00:00.000 : en:Main Titles
00:03:18.000 : en:This is No Joke!
00:05:02.000 : en:A Very Rich Witch
00:12:34.000 : en:They'll All Come Around
00:16:44.000 : en:A Girl and Thoreau
00:20:07.000 : en:She Married Who?
00:24:31.000 : en:Hoppin' with Hopper
00:29:25.000 : en:Good Hard Work
00:34:24.000 : en:The Art of Paris
00:44:15.000 : en:The Creative Process
00:50:28.000 : en:The End of Larry
00:56:11.000 : en:And Then There Was Rod Anderson
01:06:09.000 : en:Lush Budgett Presents
01:11:51.000 : en:Cursed Witch's Curse
01:16:46.000 : en:Pinky the Poet
01:20:34.000 : en:I Think That You And I Should Get Acquainted
01:25:16.000 : en:Musical Extravaganza
01:31:13.000 : en:I Think That You And I Should Get Acquainted Reprise
01:35:21.000 : en:Pinky Is Boffo!!...and Dead!
01:42:59.000 : en:Everyone But Leonard

_________________
Показать сообщения:    

Текущее время: Сегодня 05:42

Часовой пояс: GMT



Вы не можете начинать темы
Вы не можете отвечать на сообщения
Вы не можете редактировать свои сообщения
Вы не можете удалять свои сообщения
Вы не можете голосовать в опросах
Вы не можете прикреплять файлы к сообщениям
Вы не можете скачивать файлы