Ивановский Торрент трекер
Яндекс.Погода
 

[Цитировать]
HUNTER

Что ждёт внизу / What Waits Below
Страна: США
Жанр: ужасы
Год выпуска: 1984
Продолжительность: 01:27:53
Перевод: Одноголосый закадровый
Cубтитры: нет
Оригинальная аудиодорожка: английский
Режиссер: Дон Шарп / Don Sharp
В ролях: Роберт Пауэлл, Тимоти Боттомс, Лиза Блаунт, Ричард Джонсон
Описание: Американские военные посланы в Никарагуа, чтобы установить в прибрежных пещерах радиомаяки для атомных подводных лодок.
Сэмпл: http://yadi.sk/d/vp4O2NFo2lkoT
Тип релиза: DVD5
Контейнер: DVD-Video
Видео: PAL 4:3 (720x576) VBR
Аудио 1: AC-3, 192 Kbps, 2 ch, 48 KHz, русский
Аудио 2: AC-3, 224 Kbps, 2 ch, 48 KHz, английский

MediaInfo

DVDInfo
Title: What Waits Below - Что ждёт внизу (1984) DVD5
Size: 3.41 Gb ( 3 574 596,00 KBytes ) - DVD-5
Enabled regions: 1, 2, 3, 4, 5, 6
VTS_01 :
Play Length: 00:00:27
Video: PAL 4:3 (720x576) VBR
VTS_02 :
Play Length: 01:27:53+{01:27:53}
Video: PAL 4:3 (720x576) VBR
Audio:
Russian (Dolby AC3, 2 ch)
English (Dolby AC3, 2 ch)
* Menus Information *
VIDEO_TS Menu
Video:
NTSC 4:3 (720x480) VBR
Auto Pan&Scan, Auto Letterboxed
English Language Unit :
Title Menu
VTS_01 Menu
Video:
PAL 4:3 (720x576) VBR
English Language Unit :
Root Menu
VTS_02 Menu
Video:
PAL 4:3 (720x576) VBR
English Language Unit :
Root Menu
MediaInfo
General
Complete name : F:\Художественные фильмы\What Waits Below - Что ждёт внизу (1984) DVD5\VIDEO_TS\VTS_02_1.VOB
Format : MPEG-PS
File size : 1 024 MiB
Duration : 25mn 52s
Overall bit rate : 5 532 Kbps
Video
ID : 224 (0xE0)
Format : MPEG Video
Format version : Version 2
Format profile : Main@Main
Format settings, BVOP : Yes
Format settings, Matrix : Custom
Format settings, GOP : M=3, N=12
Duration : 25mn 52s
Bit rate : 5 000 Kbps
Width : 720 pixels
Height : 576 pixels
Display aspect ratio : 4:3
Frame rate : 25.000 fps
Standard : PAL
Color space : YUV
Chroma subsampling : 4:2:0
Bit depth : 8 bits
Scan type : Interlaced
Scan order : Top Field First
Compression mode : Lossy
Bits/(Pixel*Frame) : 0.482
Stream size : 927 MiB (90%)
Audio #1
ID : 189 (0xBD)-128 (0x80)
Format : AC-3
Format/Info : Audio Coding 3
Mode extension : CM (complete main)
Format settings, Endianness : Big
Muxing mode : DVD-Video
Duration : 25mn 52s
Bit rate mode : Constant
Bit rate : 192 Kbps
Channel(s) : 2 channels
Channel positions : Front: L R
Sampling rate : 48.0 KHz
Bit depth : 16 bits
Compression mode : Lossy
Delay relative to video : -80ms
Stream size : 35.5 MiB (3%)
Audio #2
ID : 189 (0xBD)-129 (0x81)
Format : AC-3
Format/Info : Audio Coding 3
Mode extension : CM (complete main)
Format settings, Endianness : Big
Muxing mode : DVD-Video
Duration : 25mn 52s
Bit rate mode : Constant
Bit rate : 224 Kbps
Channel(s) : 2 channels
Channel positions : Front: L R
Sampling rate : 48.0 KHz
Bit depth : 16 bits
Compression mode : Lossy
Delay relative to video : -80ms
Stream size : 41.5 MiB (4%)
Menu

Меню

Скриншоты

Показать сообщения:    

Текущее время: 20-Сен 06:20

Часовой пояс: UTC - 1


Вы не можете начинать темы
Вы не можете отвечать на сообщения
Вы не можете редактировать свои сообщения
Вы не можете удалять свои сообщения
Вы не можете голосовать в опросах
Вы не можете прикреплять файлы к сообщениям
Вы не можете скачивать файлы

!ВНИМАНИЕ!
Сайт не предоставляет электронные версии произведений, а занимается лишь коллекционированием и каталогизацией ссылок, присылаемых и публикуемых на форуме нашими читателями. Если вы являетесь правообладателем какого-либо представленного материала и не желаете, чтобы ссылка на него находилась в нашем каталоге, свяжитесь с нами, и мы незамедлительно удалим ее. Файлы для обмена на трекере предоставлены пользователями сайта, и администрация не несет ответственности за их содержание. Просьба не заливать файлы, защищенные авторскими правами, а также файлы нелегального содержания!