Важное объявление!
У Нас Все раздачи мультитрекерные, при нуле пиров в релизах, можете смело вставать на закачку!
Статистика раздачи
Размер:     |    Зарегистрирован:     |    Скачан:     |   
Нет
 
     
 
 
Автор Сообщение

HUNTER

Стаж:
5 лет 1 месяц
Сообщений:
68429

Репутация: 101

[+] [-]
Вне форума [Профиль] [ЛС]

Чрезвычайное положение / State of Emergency
Страна: США
Студия: Clay Bros. Motion Pictures
Жанр: ужасы, фантастика, триллер
Год выпуска: 2011
Продолжительность: 01:29:42
Перевод: Одноголосый закадровый Xixidok
Cубтитры: английские
Оригинальная аудиодорожка: английский
Режиссер: Тернер Клэй / Turner Clay
В ролях: Джей Хейден, Т. Уайт, Скотт Лилли, Кэтрин Тодд Норман, МакКенна Джонс, Лорен Альбанезе, Энди Стал, Клэй Бурк, Дэн Коллетт, Крис Эрли
Описание: Хаос охватывает небольшой городок, когда в результате взрыва химического объекта в воздух проникает смертельно опасный токсин. В считанные минуты после утечки ядовитого вещества у местных жителей проявляются признаки мутации, что вынуждает военных срочно закрыть этот сектор на карантин, оставляя тем самым выживших в одной ловушке вместе с зараженными. Молодой человек по имени Джим тоже находится в самом эпицентре этого кошмара, и он отчаянно пытается выжить среди обезумевших зомби в надежде не только не стать для них завтраком, но ещё и обрести долгожданную свободу.
Сэмпл: http://multi-up.com/1118283
Тип релиза: BDRip 720p [DON]
Контейнер: MKV
Видео: MPEG4 Video (H264) 1280x720 23.976fps 6 500 Kbps
Аудио: Russian AC-3 / 2 ch / 48.0 KHz / 192 Kbps
Аудио 2: English AC-3 / 6 ch / 48.0 KHz / 640 Kbps
Формат субтитров: softsub (SRT)

MediaInfo

General
Unique ID : 222317538656817387335840237902876158249 (0xA740CCECA9439DAC9E9C2F21287CA929)
Complete name : C:\Documents\State of Emergency 2011 720p BDRip.mkv
Format : Matroska
Format version : Version 4 / Version 2
File size : 4.59 GiB
Duration : 1h 29mn
Overall bit rate : 7 328 Kbps
Encoded date : UTC 2016-09-16 07:10:53
Writing application : mkvmerge v9.4.2 ('So High') 64bit
Writing library : libebml v1.3.4 + libmatroska v1.4.5
DURATION : 01:22:14.800000000
NUMBER_OF_FRAMES : 541
NUMBER_OF_BYTES : 21040
_STATISTICS_WRITING_APP : mkvmerge v9.4.2 ('So High') 64bit
_STATISTICS_WRITING_DATE_UTC : 2016-09-16 07:10:53
_STATISTICS_TAGS : BPS DURATION NUMBER_OF_FRAMES NUMBER_OF_BYTES
Video
ID : 1
Format : AVC
Format/Info : Advanced Video Codec
Format profile : High@L4.1
Format settings, CABAC : Yes
Format settings, ReFrames : 9 frames
Codec ID : V_MPEG4/ISO/AVC
Duration : 1h 29mn
Bit rate : 6 500 Kbps
Width : 1 280 pixels
Height : 720 pixels
Display aspect ratio : 16:9
Frame rate mode : Constant
Frame rate : 23.976 fps
Color space : YUV
Chroma subsampling : 4:2:0
Bit depth : 8 bits
Scan type : Progressive
Bits/(Pixel*Frame) : 0.294
Stream size : 3.98 GiB (87%)
Writing library : x264 core 148 r2705 3f5ed56
Encoding settings : cabac=1 / ref=9 / deblock=1:-3:-3 / analyse=0x3:0x133 / me=umh / subme=11 / psy=1 / psy_rd=1.00:0.00 / mixed_ref=1 / me_range=48 / chroma_me=1 / trellis=2 / 8x8dct=1 / cqm=0 / deadzone=21,11 / fast_pskip=0 / chroma_qp_offset=-2 / threads=18 / lookahead_threads=3 / sliced_threads=0 / slices=4 / nr=0 / decimate=0 / interlaced=0 / bluray_compat=0 / constrained_intra=0 / bframes=8 / b_pyramid=2 / b_adapt=2 / b_bias=0 / direct=3 / weightb=1 / open_gop=0 / weightp=2 / keyint=250 / keyint_min=23 / scenecut=40 / intra_refresh=0 / rc_lookahead=40 / rc=2pass / mbtree=0 / bitrate=6500 / ratetol=1.0 / qcomp=0.65 / qpmin=0 / qpmax=51 / qpstep=4 / cplxblur=20.0 / qblur=0.5 / vbv_maxrate=62500 / vbv_bufsize=78125 / nal_hrd=none / filler=0 / ip_ratio=1.40 / pb_ratio=1.30 / aq=3:0.75
Language : English
Default : Yes
Forced : No
DURATION : 01:29:42.044000000
NUMBER_OF_FRAMES : 129040
NUMBER_OF_BYTES : 4371838152
_STATISTICS_WRITING_APP : mkvmerge v9.4.2 ('So High') 64bit
_STATISTICS_WRITING_DATE_UTC : 2016-09-16 07:10:53
_STATISTICS_TAGS : BPS DURATION NUMBER_OF_FRAMES NUMBER_OF_BYTES
Audio #1
ID : 2
Format : AC-3
Format/Info : Audio Coding 3
Mode extension : CM (complete main)
Format settings, Endianness : Big
Codec ID : A_AC3
Duration : 1h 29mn
Bit rate mode : Constant
Bit rate : 192 Kbps
Channel(s) : 2 channels
Channel positions : Front: L R
Sampling rate : 48.0 KHz
Compression mode : Lossy
Stream size : 123 MiB (3%)
Title : Russian AC3 2.0 @ 192 Kbps
Language : Russian
Default : Yes
Forced : Yes
Audio #2
ID : 3
Format : AC-3
Format/Info : Audio Coding 3
Mode extension : CM (complete main)
Format settings, Endianness : Big
Codec ID : A_AC3
Duration : 1h 29mn
Bit rate mode : Constant
Bit rate : 640 Kbps
Channel(s) : 6 channels
Channel positions : Front: L C R, Side: L R, LFE
Sampling rate : 48.0 KHz
Compression mode : Lossy
Stream size : 411 MiB (9%)
Title : English AC3 5.1 @ 640 Kbps
Language : English
Default : No
Forced : No
Text
ID : 4
Format : UTF-8
Codec ID : S_TEXT/UTF8
Codec ID/Info : UTF-8 Plain Text
Language : English
Default : No
Forced : No
Menu
00:00:00.000 : en:1
00:04:25.015 : en:2
00:13:02.991 : en:3
00:22:10.996 : en:4
00:29:46.952 : en:5
00:38:42.946 : en:6
00:49:54.950 : en:7
01:00:08.980 : en:8
01:10:08.955 : en:9
01:17:49.957 : en:10
01:22:23.939 : en:11
01:26:40.946 : en:12

Скриншоты


_________________
Показать сообщения:    

Текущее время: Сегодня 15:11

Часовой пояс: GMT



Вы не можете начинать темы
Вы не можете отвечать на сообщения
Вы не можете редактировать свои сообщения
Вы не можете удалять свои сообщения
Вы не можете голосовать в опросах
Вы не можете прикреплять файлы к сообщениям
Вы не можете скачивать файлы