Чокнутый профессор / The Nutty Professor (Джерри Льюис / Jerry Lewis) [1963, США, комедия, фантастика, BDRip 720p] DVO + Sub Eng + Original Eng :: Ивановский Торрент трекер
Важное объявление!
У Нас Все раздачи мультитрекерные, при нуле пиров в релизах, можете смело вставать на закачку!
Статистика раздачи
Размер:     |    Зарегистрирован:     |    Скачан:     |   
Нет
 
     
 
 
Автор Сообщение

HUNTER

Стаж:
4 года 11 месяцев
Сообщений:
66116

Репутация: 101

[+] [-]
Вне форума [Профиль] [ЛС]

Чокнутый профессор / The Nutty Professor
Страна: США
Студия: Paramount Pictures
Жанр: комедия, фантастика
Год выпуска: 1963
Продолжительность: 01:47:27
Перевод: Профессиональный (двухголосый закадровый)
Cубтитры: английские
Оригинальная аудиодорожка: английский
Режиссер: Джерри Льюис / Jerry Lewis
В ролях: Джерри Льюис, Стелла Стивенс, Дел Мур, Кэтлин Фримен, Мед Флори, Норман Элден, Ховард Моррис, Элвия Оллмэн, Милтон Фром, Бадди Лестер
Описание: Университетский профессор, униженый одним из своих учеников-спортсменов, решает найти формулу совершенства и превратить свои слабые мышцы в нечто более спортивное. В результате опытов на себе, он находит формулу, превращающую его в плейбоя, суперкрасавца с ангельским голосом, стальными мышцами и... отвратительными манерами. Только вот незадача - действие формулы очень ограничено, и в самый неподходящий момент супермен вынужден ретироваться, чтобы ни кто не увидел его обратного превращения в маленького, уродливого и щуплого профессора.
Доп. информация: Грандиозный успех в 1996 году эксцентричной фантастической комедии «Чокнутый профессор» с Эдди Мерфи в главной роли заставил многих вспомнить об уже полузабытом актере и режиссере Джерри Льюисе, который не только позволил сделать римейк своей картины 1963 года, но и сам выступил в качестве одного из исполнительных продюсеров. Справедливости ради надо отметить, что попытка возрождения его комического искусства предпринималась еще Мартином Скорсезе в ленте «Король комедии», где Льюис сыграл как раз того кумира, которому хотел бы во всем подражать амбициозный, а порой и просто наглый герой Роберта де Ниро. Новую версию «Чокнутого профессора» можно упрекнуть в несдержанности и даже грубоватости юмора по сравнению с манерой самого Льюиса, хотя считалось, что он в 50-е и в начале 60-х годов стремился развивать стиль «немой комичности», то есть экстравагантного и гэговского нагромождения смешных трюков, пусть и в сатирическом преломлении.
Sample
Тип релиза: BDRip 720p - SbR
Контейнер: MKV
Видео: MPEG4 AVC Video, H264, 16:9, 1280x720, 23,976 fps, 11.6 Mbps
Аудио: Russian (AC3, 2 ch, 192 kbps, 16 bits, 48.0 KHz) - DVO
Аудио 2: English (AC3, 6 ch, 640 kbps, 16 bits, 48.0 KHz) - оригинал
Аудио 3: English (AC3, 2 ch, 224 kbps, 16 bits, 48.0 KHz) - комментарии
Формат субтитров: softsub (SRT)

MediaInfo

General
Unique ID : 194707098973225762240713903146850446814 (0x927B39259567DF31992C61498F0DEDDE)
Complete name : E:\1\чокнутый профессор\The Nutty Professor 1963 BDRip 720p-SbR.mkv
Format : Matroska
Format version : Version 4 / Version 2
File size : 9.72 GiB
Duration : 1h 47mn
Overall bit rate : 12.9 Mbps
Encoded date : UTC 2014-07-21 16:48:45
Writing application : mkvmerge v6.1.0 ('Old Devil') built on Mar 2 2013 14:32:37
Writing library : libebml v1.3.0 + libmatroska v1.4.0
Video
ID : 1
Format : AVC
Format/Info : Advanced Video Codec
Format profile : High@L4.1
Format settings, CABAC : Yes
Format settings, ReFrames : 9 frames
Codec ID : V_MPEG4/ISO/AVC
Duration : 1h 47mn
Bit rate : 11.6 Mbps
Width : 1 280 pixels
Height : 720 pixels
Display aspect ratio : 16:9
Frame rate mode : Constant
Frame rate : 23.976 fps
Color space : YUV
Chroma subsampling : 4:2:0
Bit depth : 8 bits
Scan type : Progressive
Bits/(Pixel*Frame) : 0.527
Stream size : 8.73 GiB (90%)
Writing library : x264 core 142 r2431kMod ac76440
Encoding settings : cabac=1 / ref=9 / deblock=1:-3:-3 / analyse=0x3:0x133 / me=esa / subme=10 / psy=1 / fade_compensate=0.00 / psy_rd=1.00:0.05 / mixed_ref=1 / me_range=32 / chroma_me=1 / trellis=2 / 8x8dct=1 / cqm=0 / deadzone=21,11 / fast_pskip=0 / chroma_qp_offset=-3 / threads=6 / lookahead_threads=1 / sliced_threads=0 / nr=0 / decimate=1 / interlaced=0 / bluray_compat=0 / constrained_intra=0 / fgo=0 / bframes=9 / b_pyramid=2 / b_adapt=2 / b_bias=0 / direct=3 / weightb=1 / open_gop=0 / weightp=2 / keyint=250 / keyint_min=23 / scenecut=40 / intra_refresh=0 / rc_lookahead=60 / rc=crf / mbtree=0 / crf=18.0000 / qcomp=0.65 / qpmin=0 / qpmax=69 / qpstep=4 / vbv_maxrate=62500 / vbv_bufsize=78125 / crf_max=0.0 / nal_hrd=none / filler=0 / ip_ratio=1.30 / pb_ratio=1.20 / aq=1:0.60
Language : English
Default : Yes
Forced : No
Matrix coefficients : BT.709
Audio #1
ID : 2
Format : AC-3
Format/Info : Audio Coding 3
Mode extension : CM (complete main)
Format settings, Endianness : Big
Codec ID : A_AC3
Duration : 1h 47mn
Bit rate mode : Constant
Bit rate : 192 Kbps
Channel count : 2 channels
Channel positions : Front: L R
Sampling rate : 48.0 KHz
Bit depth : 16 bits
Compression mode : Lossy
Stream size : 148 MiB (1%)
Title : DVO
Language : Russian
Default : Yes
Forced : No
Audio #2
ID : 3
Format : AC-3
Format/Info : Audio Coding 3
Mode extension : CM (complete main)
Format settings, Endianness : Big
Codec ID : A_AC3
Duration : 1h 47mn
Bit rate mode : Constant
Bit rate : 640 Kbps
Channel count : 6 channels
Channel positions : Front: L C R, Side: L R, LFE
Sampling rate : 48.0 KHz
Bit depth : 16 bits
Compression mode : Lossy
Stream size : 492 MiB (5%)
Language : English
Default : No
Forced : No
Audio #3
ID : 5
Format : AC-3
Format/Info : Audio Coding 3
Format profile : Dolby Digital
Mode extension : CM (complete main)
Format settings, Endianness : Big
Codec ID : A_AC3
Duration : 1h 47mn
Bit rate mode : Constant
Bit rate : 224 Kbps
Channel count : 2 channels
Channel positions : Front: L R
Sampling rate : 48.0 KHz
Bit depth : 16 bits
Compression mode : Lossy
Stream size : 172 MiB (2%)
Title : комментарии
Language : English
Default : No
Forced : No
Text
ID : 4
Format : UTF-8
Codec ID : S_TEXT/UTF8
Codec ID/Info : UTF-8 Plain Text
Language : English
Default : No
Forced : No
Menu
00:00:00.000 : en:00:00:00.000
00:09:46.544 : en:00:09:46.544
00:14:24.446 : en:00:14:24.446
00:20:50.874 : en:00:20:50.874
00:26:59.284 : en:00:26:59.284
00:37:24.867 : en:00:37:24.867
00:44:54.525 : en:00:44:54.525
00:52:17.342 : en:00:52:17.342
00:58:20.121 : en:00:58:20.121
01:08:20.221 : en:01:08:20.221
01:13:12.679 : en:01:13:12.679
01:21:16.204 : en:01:21:16.204
01:29:51.969 : en:01:29:51.969
01:37:27.841 : en:01:37:27.841
01:45:56.683 : en:01:45:56.683

Source vs Encode

Source | Encode

Скриншоты


_________________
Показать сообщения:    

Текущее время: Сегодня 14:24

Часовой пояс: GMT



Вы не можете начинать темы
Вы не можете отвечать на сообщения
Вы не можете редактировать свои сообщения
Вы не можете удалять свои сообщения
Вы не можете голосовать в опросах
Вы не можете прикреплять файлы к сообщениям
Вы не можете скачивать файлы