Важное объявление!
У Нас Все раздачи мультитрекерные, при нуле пиров в релизах, можете смело вставать на закачку!
 
Автор Сообщение

HUNTER

Стаж:
4 года 9 месяцев
Сообщений:
65021

Репутация: 101

[+] [-]
Вне форума [Профиль] [ЛС]

Чистосердечное признание - Ксения Бородина (Эфир от 20.01.2013)
Год выпуска: 2013
Страна: Россия
Жанр: Документальный
Продолжительность: 00:37:01
Перевод: Не требуется
Русские субтитры: нет
Описание:
Программа существует уже более 10 лет. Все это время в ней показывали только эксклюзивы — материалы, которые невозможно увидеть где-либо еще. Разнообразные темы и, конечно же, чистосердечные признания. Герои передачи доверяют зрителям самые сокровенные тайны. Корреспонденты и продюсеры программы — профессионалы, способные, оставаясь за кадром, заставить нас взглянуть на многие вещи и события под новым углом. Это документальная программа только о том, что действительно интересно. Здесь все реально, все эмоционально и обязательно актуально.
В этом выпуске:
Бородинская битва Ксении Бородиной. Как она строила свою любовь и воевала с бывшим мужем? Как спасала избранника от тюрьмы и одержала победу над лишними килограммами? Впервые она расскажет откровенно и обо всем.
Доп. информация: Релиз -

Рип чистый. Без посторонних надписей. Выкладывается как есть.
Качество: DVB
Формат: MPG
Видео кодек: MPG2
Аудио кодек: MP2
Видео: 720x576 @ 768x576 (4:3) 25.00fps 5 017 Kbps, 0.484 bit/pixel
Аудио: MPEG Audio 48000Hz stereo 192 Кбит/сек

Скриншоты


Скринлист

MI

GeneralComplete name : H:\ВЫКЛАДКА\DVB\Чистосердечное признание\Чистосердечное признание - Ксения Бородина (MYDIMKA).mpgFormat : MPEG-PSFile size : 1.40 GiBDuration : 37mn 2sOverall bit rate mode : VariableOverall bit rate : 5 425 Kbps
VideoID : 224 (0xE0)Format : MPEG VideoFormat version : Version 2Format profile : Main@MainFormat settings, BVOP : YesFormat settings, Matrix : CustomFormat settings, GOP : VariableDuration : 37mn 2sBit rate mode : VariableBit rate : 5 125 KbpsMaximum bit rate : 15.0 MbpsWidth : 720 pixelsHeight : 576 pixelsDisplay aspect ratio : 4:3Frame rate : 25.000 fpsStandard : PALColor space : YUVChroma subsampling : 4:2:0Bit depth : 8 bitsScan type : InterlacedScan order : Top Field FirstCompression mode : LossyBits/(Pixel*Frame) : 0.494Stream size : 1.33 GiB (94%)
AudioID : 192 (0xC0)Format : MPEG AudioFormat version : Version 1Format profile : Layer 2Duration : 37mn 2sBit rate mode : ConstantBit rate : 192 KbpsChannel(s) : 2 channelsSampling rate : 48.0 KHzCompression mode : LossyDelay relative to video : 4msStream size : 50.9 MiB (4%)

_________________
Показать сообщения:    

Текущее время: Сегодня 12:56

Часовой пояс: GMT



Вы не можете начинать темы
Вы не можете отвечать на сообщения
Вы не можете редактировать свои сообщения
Вы не можете удалять свои сообщения
Вы не можете голосовать в опросах
Вы не можете прикреплять файлы к сообщениям
Вы не можете скачивать файлы