Ивановский Торрент трекер
Яндекс.Погода
 

[Цитировать]
HUNTER

Чистосердечное признание - Истории любви (Эфир от 09.06.2013)
Год выпуска: 2013
Страна: Россия
Жанр: Документальный
Продолжительность: 00:30:19
Перевод: Не требуется
Русские субтитры: нет
Описание:
Программа существует уже более 10 лет. Все это время в ней показывали только эксклюзивы — материалы, которые невозможно увидеть где-либо еще. Разнообразные темы и, конечно же, чистосердечные признания. Герои передачи доверяют зрителям самые сокровенные тайны. Корреспонденты и продюсеры программы — профессионалы, способные, оставаясь за кадром, заставить нас взглянуть на многие вещи и события под новым углом. Это документальная программа только о том, что действительно интересно. Здесь все реально, все эмоционально и обязательно актуально.
В этом выпуске:
Звездные истории любви
Доп. информация: Релиз -

Рип чистый. Без посторонних надписей. Выкладывается как есть.
Качество: DVB
Формат: MPG
Видео кодек: MPG2
Аудио кодек: MP2
Видео: 720x576 @ 1024x576 (16:9) 25.00fps 5 810 Kbps, 0.560 bit/pixel
Аудио: MPEG Audio 48000Hz stereo 192 Кбит/сек

Скриншоты

Скринлист

MI

GeneralComplete name : D:\Выкладка\Чистосердечное признание - История любви (Эфир от 09.06.2013) (2013, Документальный, DVB) (MYDIMKA).mpgFormat : MPEG-PSFile size : 1.30 GiBDuration : 30mn 19sOverall bit rate mode : VariableOverall bit rate : 6 120 Kbps
VideoID : 224 (0xE0)Format : MPEG VideoFormat version : Version 2Format profile : Main@MainFormat settings, BVOP : YesFormat settings, Matrix : CustomFormat settings, GOP : M=3, N=24Duration : 30mn 19sBit rate mode : VariableBit rate : 5 806 KbpsMaximum bit rate : 15.0 MbpsWidth : 720 pixelsHeight : 576 pixelsDisplay aspect ratio : 16:9Frame rate : 25.000 fpsStandard : PALColor space : YUVChroma subsampling : 4:2:0Bit depth : 8 bitsScan type : InterlacedScan order : Top Field FirstCompression mode : LossyBits/(Pixel*Frame) : 0.560Time code of first frame : 00:00:00:00Time code source : Group of pictures headerStream size : 1.23 GiB (95%)
AudioID : 192 (0xC0)Format : MPEG AudioFormat version : Version 1Format profile : Layer 2Duration : 30mn 19sBit rate mode : ConstantBit rate : 192 KbpsChannel(s) : 2 channelsSampling rate : 48.0 KHzCompression mode : LossyDelay relative to video : 5msStream size : 41.6 MiB (3%)
Показать сообщения:    

Текущее время: 18-Окт 15:54

Часовой пояс: UTC - 1


Вы не можете начинать темы
Вы не можете отвечать на сообщения
Вы не можете редактировать свои сообщения
Вы не можете удалять свои сообщения
Вы не можете голосовать в опросах
Вы не можете прикреплять файлы к сообщениям
Вы не можете скачивать файлы

!ВНИМАНИЕ!
Сайт не предоставляет электронные версии произведений, а занимается лишь коллекционированием и каталогизацией ссылок, присылаемых и публикуемых на форуме нашими читателями. Если вы являетесь правообладателем какого-либо представленного материала и не желаете, чтобы ссылка на него находилась в нашем каталоге, свяжитесь с нами, и мы незамедлительно удалим ее. Файлы для обмена на трекере предоставлены пользователями сайта, и администрация не несет ответственности за их содержание. Просьба не заливать файлы, защищенные авторскими правами, а также файлы нелегального содержания!