Важное объявление!
У Нас Все раздачи мультитрекерные, при нуле пиров в релизах, можете смело вставать на закачку!
 
Автор Сообщение

HUNTER

Стаж:
4 года 8 месяцев
Сообщений:
62020

Репутация: 101

[+] [-]
Вне форума [Профиль] [ЛС]

Честная игра / Fair Game-
Год выпуска: 1995
Страна: США, ОАЭ
Жанр: боевик, триллер
Продолжительность: 01:30:00
Перевод: Профессиональный (полное дублирование)
+ Профессиональный (многоголосый, закадровый) Варус-Видео
+ Профессиональный (многоголосый, закадровый) НТВ Профит
+ Авторский одноголосый А.Гаврилов
+ Авторский одноголосый А.Дольский
+ Авторский одноголосый С.Визгунов
+ Авторский одноголосый Л.Володарский
Оригинальная звуковая дорожка: English
Субтитры: Russian, English-Режиссер: Эндрю Сайпс / Andrew Sipes
В ролях: Уильям Болдуин, Синди Кроуфорд, Стивен Беркофф, Кристофер МакДональд, Мигель Сандоваль, Йохан Карло, Сальма Хайек, Джон Бедфорд Ллойд, Олек Крупа, Дженетт Голдстин
О фильме: Кэтрин Маккуин, красивая женщина-адвокат, сама того не подозревая, случайно вмешалась в крупную игру работников из бывшего КГБ. Ее хотят убрать как мелкую, но досадную помеху. Однако случай сводит ее с детективом Максом Киркпатриком, который тоже оказывается втянутым в «игру» и теряет трех своих друзей — полицейских.
Вместе они пытаются скрыться, но их местонахождение постоянно оказывается известным преследователям. Начинается настоящая охота, в которой еще пока не ясно кто охотник, а кто жертва.-Релиз:
Тип релиза: 720p WEB-DL
Формат: MKV
Видео: 1278x720 at 23.976 fps, MPEG-4 AVC, ~3867 kbps avg
Аудио #01: Russian: 48 kHz, AC3, 3/2 (L,C,R,l,r) + LFE ch, ~448.00 kbps avg |Дубляж|
Аудио #02: Russian: 48 kHz, AC3, 2/0 (L,R) ch, ~224.00 kbps avg |Многоголосый закадровый, Варус-видео|
Аудио #03: Russian: 48 kHz, AC3, 2/0 (L,R) ch, ~224.00 kbps avg |Многоголосый закадровый, НТВ Профит|
Аудио #04: Russian: 48 kHz, AC3, 3/2 (L,C,R,l,r) + LFE ch, ~448.00 kbps avg |Одноголосый закадровый, А.Гаврилов|
Аудио #05: Russian: 48 kHz, AC3, 3/2 (L,C,R,l,r) + LFE ch, ~448.00 kbps avg |Одноголосый закадровый, А.Дольский|
Аудио #06: Russian: 48 kHz, AC3, 2/0 (L,R) ch, ~224.00 kbps avg |Одноголосый закадровый, С.Визгунов|
Аудио #07: Russian: 48 kHz, AC3, 2/0 (L,R) ch, ~192.00 kbps avg |Одноголосый закадровый, Л.Володарский|
Аудио #08: Ukrainian: 48 kHz, AC3, 3/2 (L,C,R,l,r) + LFE ch, ~448.00 kbps avg |Многоголосый закадровый, Новый канал|
Аудио #09: English: 48 kHz, AC3, 3/2 (L,C,R,l,r) + LFE ch, ~384.00 kbps avg
Семпл-

Кадры из фильма


-

mInfo

Формат : Matroska
Версия формата : Version 4 / Version 2
Размер файла : 4,45 Гбайт
Продолжительность : 1 ч. 30 м.
Общий поток : 7043 Кбит/сек
Дата кодирования : UTC 2016-03-06 19:29:38
Программа кодирования : mkvmerge v6.2.0 ('Promised Land') built on Apr 28 2013 12:22:01
Библиотека кодирования : libebml v1.3.0 + libmatroska v1.4.0
Видео
Идентификатор : 1
Формат : AVC
Формат/Информация : Advanced Video Codec
Профиль формата : High@L3.1
Параметр CABAC формата : Нет
Параметр ReFrames формата : 2 кадра
Параметр GOP формата : N=1
Идентификатор кодека : V_MPEG4/ISO/AVC
Продолжительность : 1 ч. 30 м.
Битрейт : 3863 Кбит/сек
Ширина : 1278 пикселей
Высота : 720 пикселей
Соотношение сторон : 16:9
Режим частоты кадров : Постоянный
Частота кадров : 23,976 кадра/сек
Цветовое пространство : YUV
Субдискретизация насыщенности : 4:2:0
Битовая глубина : 8 бит
Тип развёртки : Прогрессивная
Бит/(Пиксели*Кадры) : 0.175
Размер потока : 2,44 Гбайт (55%)
Язык : English
Default : Да
Forced : Нет
Основные цвета : BT.709
Характеристики трансфера : BT.709
Коэффициенты матрицы : BT.709
colour_range : Limited
Аудио #1
Идентификатор : 2
Формат : AC-3
Формат/Информация : Audio Coding 3
Расширение режима : CM (complete main)
Параметр Endianness формата : Big
Идентификатор кодека : A_AC3
Продолжительность : 1 ч. 30 м.
Вид битрейта : Постоянный
Битрейт : 448 Кбит/сек
Каналы : 6 каналов
Расположение каналов : Front: L C R, Side: L R, LFE
Частота : 48,0 КГц
Битовая глубина : 16 бит
Метод сжатия : С потерями
Размер потока : 290 Мбайт (6%)
Заголовок : AC3 5.1 ch 448 kbps Dub
Язык : Russian
Default : Да
Forced : Нет
Аудио #2
Идентификатор : 3
Формат : AC-3
Формат/Информация : Audio Coding 3
Расширение режима : CM (complete main)
Параметр Endianness формата : Big
Идентификатор кодека : A_AC3
Продолжительность : 1 ч. 30 м.
Вид битрейта : Постоянный
Битрейт : 224 Кбит/сек
Каналы : 2 канала
Расположение каналов : Front: L R
Частота : 48,0 КГц
Битовая глубина : 16 бит
Метод сжатия : С потерями
Размер потока : 145 Мбайт (3%)
Заголовок : AC3 2 ch 224 kbps MVO Варус-видно
Язык : Russian
Default : Нет
Forced : Нет
Аудио #3
Идентификатор : 4
Формат : AC-3
Формат/Информация : Audio Coding 3
Расширение режима : CM (complete main)
Параметр Endianness формата : Big
Идентификатор кодека : A_AC3
Продолжительность : 1 ч. 30 м.
Вид битрейта : Постоянный
Битрейт : 224 Кбит/сек
Каналы : 2 канала
Расположение каналов : Front: L R
Частота : 48,0 КГц
Битовая глубина : 16 бит
Метод сжатия : С потерями
Размер потока : 145 Мбайт (3%)
Заголовок : AC3 2 ch 224 kbps MVO НТВ/Профит
Язык : Russian
Default : Нет
Forced : Нет
Аудио #4
Идентификатор : 5
Формат : AC-3
Формат/Информация : Audio Coding 3
Расширение режима : CM (complete main)
Параметр Endianness формата : Big
Идентификатор кодека : A_AC3
Продолжительность : 1 ч. 30 м.
Вид битрейта : Постоянный
Битрейт : 448 Кбит/сек
Каналы : 6 каналов
Расположение каналов : Front: L C R, Side: L R, LFE
Частота : 48,0 КГц
Битовая глубина : 16 бит
Метод сжатия : С потерями
Размер потока : 290 Мбайт (6%)
Заголовок : AC3 5.1 ch 448 kbps Андрей Гаврилов
Язык : Russian
Default : Нет
Forced : Нет
Аудио #5
Идентификатор : 6
Формат : AC-3
Формат/Информация : Audio Coding 3
Расширение режима : CM (complete main)
Параметр Endianness формата : Big
Идентификатор кодека : A_AC3
Продолжительность : 1 ч. 30 м.
Вид битрейта : Постоянный
Битрейт : 448 Кбит/сек
Каналы : 6 каналов
Расположение каналов : Front: L C R, Side: L R, LFE
Частота : 48,0 КГц
Битовая глубина : 16 бит
Метод сжатия : С потерями
Размер потока : 290 Мбайт (6%)
Заголовок : AC3 5.1 ch 448 kbps Дольский
Язык : Russian
Default : Нет
Forced : Нет
Аудио #6
Идентификатор : 7
Формат : AC-3
Формат/Информация : Audio Coding 3
Расширение режима : CM (complete main)
Параметр Endianness формата : Big
Идентификатор кодека : A_AC3
Продолжительность : 1 ч. 30 м.
Вид битрейта : Постоянный
Битрейт : 224 Кбит/сек
Каналы : 2 канала
Расположение каналов : Front: L R
Частота : 48,0 КГц
Битовая глубина : 16 бит
Метод сжатия : С потерями
Размер потока : 145 Мбайт (3%)
Заголовок : AC3 2 ch 224 kbps Сергей Визгунов
Язык : Russian
Default : Нет
Forced : Нет
Аудио #7
Идентификатор : 8
Формат : AC-3
Формат/Информация : Audio Coding 3
Расширение режима : CM (complete main)
Параметр Endianness формата : Big
Идентификатор кодека : A_AC3
Продолжительность : 1 ч. 30 м.
Вид битрейта : Постоянный
Битрейт : 192 Кбит/сек
Каналы : 2 канала
Расположение каналов : Front: L R
Частота : 48,0 КГц
Битовая глубина : 16 бит
Метод сжатия : С потерями
Размер потока : 124 Мбайт (3%)
Заголовок : AC3 2 ch 192 kbps Леонид Володарский
Язык : Russian
Default : Нет
Forced : Нет
Аудио #8
Идентификатор : 9
Формат : AC-3
Формат/Информация : Audio Coding 3
Расширение режима : CM (complete main)
Параметр Endianness формата : Big
Идентификатор кодека : A_AC3
Продолжительность : 1 ч. 30 м.
Вид битрейта : Постоянный
Битрейт : 448 Кбит/сек
Каналы : 6 каналов
Расположение каналов : Front: L C R, Side: L R, LFE
Частота : 48,0 КГц
Битовая глубина : 16 бит
Метод сжатия : С потерями
Размер потока : 290 Мбайт (6%)
Заголовок : AC3 5.1 ch 448 kbps MVO Новый-канал
Язык : Ukrainian
Default : Нет
Forced : Нет
Аудио #9
Идентификатор : 10
Формат : AC-3
Формат/Информация : Audio Coding 3
Расширение режима : CM (complete main)
Параметр Endianness формата : Big
Идентификатор кодека : A_AC3
Продолжительность : 1 ч. 30 м.
Вид битрейта : Постоянный
Битрейт : 384 Кбит/сек
Каналы : 6 каналов
Расположение каналов : Front: L C R, Side: L R, LFE
Частота : 48,0 КГц
Битовая глубина : 16 бит
Метод сжатия : С потерями
Размер потока : 248 Мбайт (5%)
Заголовок : AC3 5.1 ch 384 kbps
Язык : English
Default : Нет
Forced : Нет
Текст #1
Идентификатор : 11
Формат : UTF-8
Идентификатор кодека : S_TEXT/UTF8
Идентификатор кодека/Информация : UTF-8 Plain Text
Язык : Russian
Default : Нет
Forced : Нет
Текст #2
Идентификатор : 12
Формат : UTF-8
Идентификатор кодека : S_TEXT/UTF8
Идентификатор кодека/Информация : UTF-8 Plain Text
Язык : English
Default : Нет
Forced : Нет
Меню
00:00:00.000 : en:Credits While Jogging
00:03:13.000 : en:No Slack For Max
00:06:42.000 : en:Swapping Jokes
00:10:51.000 : en:Kate Gets Unattractive
00:14:19.000 : en:Dead Before Dinner
00:15:20.000 : en:Out On The Street
00:17:27.000 : en:In A Flash
00:19:48.000 : en:Kasak Cuts Staff
00:22:08.000 : en:On Their Electronic Trail
00:25:57.000 : en:Target Shooting
00:32:08.000 : en:Arranging A Rendezvous
00:34:52.000 : en:Official ID - For A Trap
00:39:57.000 : en:"I Know You're Out There"
00:46:59.000 : en:Smelly Decoy
00:49:17.000 : en:Joystick Fiddling
00:54:33.000 : en:A Lead To Jodi
00:56:04.000 : en:Family Business
00:58:33.000 : en:Highway Havoc
01:03:10.000 : en:Kate Flees, Max Follows
01:05:52.000 : en:On A Fast Track
01:08:05.000 : en:Cornered And Derailed
01:12:54.000 : en:Numbers Game
01:16:39.000 : en:Bloody Beachhead
01:20:15.000 : en:Assault On The Tortuga
01:21:35.000 : en:Great Balls Of Fire
01:24:03.000 : en:Getting Out Of A Lawsuit
01:25:19.000 : en:End Credits

-
Цитата:
Цитата:


* Дорожки №№ 4,5 и 8 собраны с чистого, выделенного и чистых голосов соответственно микшированием с центром декодированного АС3 оригинала.
* Чистые голоса "Нового канала" - HDclub.
* За исходный вебдл спасибо Andi999.
* За аудиодорожки Визгунова и Володарского спасибо Dunhill200 и DeASS.

_________________
Показать сообщения:    

Текущее время: Сегодня 14:45

Часовой пояс: GMT



Вы не можете начинать темы
Вы не можете отвечать на сообщения
Вы не можете редактировать свои сообщения
Вы не можете удалять свои сообщения
Вы не можете голосовать в опросах
Вы не можете прикреплять файлы к сообщениям
Вы не можете скачивать файлы
Наши партнеры: интернет магазин Ивановского трикотажа textilla.ru