Ивановский Торрент трекер
Яндекс.Погода
 

[Цитировать]
HUNTER

Черный пес / Black Dog«Есть только один способ выжить - не останавливаться»-Страна: США, Великобритания, Франция, Германия, Япония
Студия: Universal Pictures, Mutual Film Company, Prelude Pictures
Жанр: боевик, триллер, драма, криминал
Год выпуска: 1998
Продолжительность: 01:28:19
Перевод 1-2: Профессиональный (многоголосый закадровый) | PTP, ОРТ
Перевод 3: Профессиональный (двухголосый закадровый)
Перевод 4-5: Авторский (одноголосый закадровый) | А. Гаврилов, Ю. Живов
Оригинальная аудиодорожка: английский
Cубтитры: русские, английские
Режиссер: Кевин Хукс / Kevin Hooks
В ролях: Патрик Суэйзи, Мит Лоуф, Рэнди Трэвис, Гэбриел Коссес, Брайан Винсент, Грэм Беккел, Бренда Стронг, Расти Де Уиз, Сирил О’Райлли, Эрин Бродерик
Описание: Водитель-дальнобойщик Джек Круз только что вышел из тюрьмы и сейчас находится под полицейским надзором. Однако, обстоятельства вынуждают его, ради благополучия жены и ребенка, согласиться на перевозку левого груза. Без лишних вопросов он отправляется в путь. Очень скоро становиться ясно насколько опасным будет этот рейс. Но, преследуемый бандитами и ФБР, Джек твердо намерен доставить груз по назначению.-
Тип релиза: BDRip 720p (BDRemux thx Sem-te)
Контейнер: MKV
Видео: 1280x544 at 23.976 fps, x264@L4.1, crf, ~6476 kbps avg
Аудио 1: Russian: 48 kHz, AC3, 2/0 (L,R) ch, ~192 kbps avg |Многоголосый закадровый, РТР|
Аудио 2: Russian: 48 kHz, AC3, 2/0 (L,R) ch, ~192 kbps avg |Многоголосый закадровый, ОРТ|
Аудио 3: Russian: 48 kHz, AC3, 3/2 (L,C,R,l,r) + LFE ch, ~448 kbps avg |Двухголосый закадровый|
Аудио 4: Russian: 48 kHz, AC3, 3/2 (L,C,R,l,r) + LFE ch, ~640 kbps avg |Одноголосый закадровый, А. Гаврилов|
Аудио 5: Russian: 48 kHz, AC3, 3/2 (L,C,R,l,r) + LFE ch, ~640 kbps avg |Одноголосый закадровый, Ю. Живов|
Аудио 6: English: 48 kHz, AC3, 3/2 (L,C,R,l,r) + LFE ch, ~640 kbps avg |Original|
Cубтитры: Russian, English (SDH)

MediaInfo + x264

x264 [info]: frame I:992 Avg QP:16.22 size:103122
x264 [info]: frame P:28725 Avg QP:17.39 size: 55669
x264 [info]: frame B:97342 Avg QP:19.69 size: 26589
x264 [info]: consecutive B-frames: 2.5% 3.2% 9.1% 21.9% 18.4% 35.8% 4.7% 1.9% 1.1% 0.9% 0.6%
General
Unique ID : 188919038162915287882149482714711063374 (0x8E207BB756C11477847BE6D4BD51FB4E)
Complete name : D:\Black.Dog.1998.720p.BluRay.5xRus.Eng.mkv
Format : Matroska
Format version : Version 4 / Version 2
File size : 5.70 GiB
Duration : 1 h 28 min
Overall bit rate : 9 232 kb/s
Movie name : Черный пес / Black Dog (1998)
Encoded date : UTC 2016-09-06 11:16:57
Writing application : mkvmerge v9.4.0 ('Knurl') 64bit
Writing library : libebml v1.3.4 + libmatroska v1.4.5
Cover : Yes
Attachments : xlog.txt / cover.jpg
Video
ID : 1
Format : AVC
Format/Info : Advanced Video Codec
Format profile : High@L4.1
Format settings, CABAC : Yes
Format settings, ReFrames : 12 frames
Codec ID : V_MPEG4/ISO/AVC
Duration : 1 h 28 min
Bit rate : 6 476 kb/s
Width : 1 280 pixels
Height : 544 pixels
Display aspect ratio : 2.35:1
Frame rate mode : Constant
Frame rate : 23.976 (24000/1001) FPS
Color space : YUV
Chroma subsampling : 4:2:0
Bit depth : 8 bits
Scan type : Progressive
Bits/(Pixel*Frame) : 0.388
Stream size : 3.99 GiB (70%)
Title : Черный пес / Black Dog (1998) BDRip 720p by Kasparas
Writing library : x264 core 148 r2705kMod 3f5ed56
Encoding settings : cabac=1 / ref=12 / deblock=1:-3:-3 / analyse=0x3:0x133 / me=umh / subme=10 / psy=1 / fade_compensate=0.00 / psy_rd=1.00:0.00 / mixed_ref=1 / me_range=32 / chroma_me=1 / trellis=2 / 8x8dct=1 / cqm=0 / deadzone=21,11 / fast_pskip=0 / chroma_qp_offset=-2 / threads=6 / lookahead_threads=1 / sliced_threads=0 / nr=0 / decimate=0 / interlaced=0 / bluray_compat=0 / constrained_intra=0 / fgo=0 / bframes=10 / b_pyramid=2 / b_adapt=2 / b_bias=0 / direct=3 / weightb=1 / open_gop=0 / weightp=2 / keyint=250 / keyint_min=23 / scenecut=40 / intra_refresh=0 / rc_lookahead=60 / rc=crf / mbtree=0 / crf=17.0000 / qcomp=0.60 / qpmin=0 / qpmax=69 / qpstep=4 / vbv_maxrate=62500 / vbv_bufsize=78125 / crf_max=0.0 / nal_hrd=none / filler=0 / ip_ratio=1.40 / pb_ratio=1.30 / aq=3:0.85
Language : English
Default : Yes
Forced : No
Audio #1
ID : 2
Format : AC-3
Format/Info : Audio Coding 3
Mode extension : CM (complete main)
Format settings, Endianness : Big
Codec ID : A_AC3
Duration : 1 h 28 min
Bit rate mode : Constant
Bit rate : 192 kb/s
Channel(s) : 2 channels
Channel positions : Front: L R
Sampling rate : 48.0 kHz
Frame rate : 31.250 FPS (1536 spf)
Compression mode : Lossy
Stream size : 121 MiB (2%)
Title : MVO, PTP
Language : Russian
Default : Yes
Forced : No
Audio #2
ID : 3
Format : AC-3
Format/Info : Audio Coding 3
Mode extension : CM (complete main)
Format settings, Endianness : Big
Codec ID : A_AC3
Duration : 1 h 28 min
Bit rate mode : Constant
Bit rate : 192 kb/s
Channel(s) : 2 channels
Channel positions : Front: L R
Sampling rate : 48.0 kHz
Frame rate : 31.250 FPS (1536 spf)
Compression mode : Lossy
Stream size : 121 MiB (2%)
Title : MVO, OPT
Language : Russian
Default : No
Forced : No
Audio #3
ID : 4
Format : AC-3
Format/Info : Audio Coding 3
Mode extension : CM (complete main)
Format settings, Endianness : Big
Codec ID : A_AC3
Duration : 1 h 28 min
Bit rate mode : Constant
Bit rate : 448 kb/s
Channel(s) : 6 channels
Channel positions : Front: L C R, Side: L R, LFE
Sampling rate : 48.0 kHz
Frame rate : 31.250 FPS (1536 spf)
Compression mode : Lossy
Stream size : 283 MiB (5%)
Title : DVO
Language : Russian
Default : No
Forced : No
Audio #4
ID : 5
Format : AC-3
Format/Info : Audio Coding 3
Mode extension : CM (complete main)
Format settings, Endianness : Big
Codec ID : A_AC3
Duration : 1 h 28 min
Bit rate mode : Constant
Bit rate : 640 kb/s
Channel(s) : 6 channels
Channel positions : Front: L C R, Side: L R, LFE
Sampling rate : 48.0 kHz
Frame rate : 31.250 FPS (1536 spf)
Compression mode : Lossy
Stream size : 404 MiB (7%)
Title : AVO, А. Гаврилов
Language : Russian
Default : No
Forced : No
Audio #5
ID : 6
Format : AC-3
Format/Info : Audio Coding 3
Mode extension : CM (complete main)
Format settings, Endianness : Big
Codec ID : A_AC3
Duration : 1 h 28 min
Bit rate mode : Constant
Bit rate : 640 kb/s
Channel(s) : 6 channels
Channel positions : Front: L C R, Side: L R, LFE
Sampling rate : 48.0 kHz
Frame rate : 31.250 FPS (1536 spf)
Compression mode : Lossy
Stream size : 404 MiB (7%)
Title : AVO, Ю. Живов
Language : Russian
Default : No
Forced : No
Audio #6
ID : 7
Format : AC-3
Format/Info : Audio Coding 3
Mode extension : CM (complete main)
Format settings, Endianness : Big
Codec ID : A_AC3
Duration : 1 h 28 min
Bit rate mode : Constant
Bit rate : 640 kb/s
Channel(s) : 6 channels
Channel positions : Front: L C R, Side: L R, LFE
Sampling rate : 48.0 kHz
Frame rate : 31.250 FPS (1536 spf)
Compression mode : Lossy
Stream size : 404 MiB (7%)
Language : English
Default : No
Forced : No
Text #1
ID : 8
Format : UTF-8
Codec ID : S_TEXT/UTF8
Codec ID/Info : UTF-8 Plain Text
Duration : 1 h 22 min
Bit rate : 69 b/s
Count of elements : 822
Stream size : 42.1 KiB (0%)
Language : Russian
Default : No
Forced : No
Text #2
ID : 9
Format : UTF-8
Codec ID : S_TEXT/UTF8
Codec ID/Info : UTF-8 Plain Text
Duration : 1 h 26 min
Bit rate : 57 b/s
Count of elements : 1187
Stream size : 36.3 KiB (0%)
Title : SDH
Language : English
Default : No
Forced : No
Menu
00:00:00.000 : en:Chapter 1
00:05:04.303 : en:Chapter 2
00:09:33.823 : en:Chapter 3
00:12:38.507 : en:Chapter 4
00:13:42.988 : en:Chapter 5
00:19:01.723 : en:Chapter 6
00:21:15.773 : en:Chapter 7
00:24:21.417 : en:Chapter 8
00:27:27.729 : en:Chapter 9
00:28:40.844 : en:Chapter 10
00:32:27.904 : en:Chapter 11
00:35:11.692 : en:Chapter 12
00:41:24.773 : en:Chapter 13
00:45:15.254 : en:Chapter 14
00:49:46.191 : en:Chapter 15
00:52:11.795 : en:Chapter 16
00:55:12.767 : en:Chapter 17
01:00:26.581 : en:Chapter 18
01:03:42.193 : en:Chapter 19
01:06:01.457 : en:Chapter 20
01:09:18.529 : en:Chapter 21
01:11:24.488 : en:Chapter 22
01:15:03.749 : en:Chapter 23
01:17:12.627 : en:Chapter 24
01:19:18.503 : en:Chapter 25
01:23:00.892 : en:Chapter 26

HDTVRip 720p vs BDRip 720p

HDTVRip ------------------------vs---------------------- BDRip


Знаете ли вы, что...

  • 6 января 1998 года, 3 члена по спец эффектам получили ранения при подготовке взрыв газа в центре города Уилмингтон, Северная Каролина. Два члена были госпитализированы с серьезными травмами, а третий получил легкое ранение. Неправильные меры безопасности, которые пошли против стандартов, разрешенных для преждевременного взрыва. Батарея используемая для запуска взрыва хранилась в грузовике моторного отсека, а не под открытым небом. Аккумулятор не был отключен, когда кабель коснулся электрические контакты произошла детонация. Black Dog Productions был оштрафован на 16800 долларов за счет государства. Эти сцены, которые были сняты в центре города Уилмингтон не были использованы в финальной версии.
  • Согласно Вику Армстронгу, команда каскадеров, включающая второго помощника режиссера и координатора трюков Гарри Хаймса, была уволена продюсерами. После этого они позвали Вика Армстронга чтобы снять погони грузовика и завершить трюковые сцены. Часть команды каскадеров осталась на съемочной площадке и была повторно нанят Армстронгом. Этим объясняется два координатора трюков. Помощник координатора трюков и второй помощник режиссера указаны в фильме.
  • Штаб-квартира ФБР, показанные в фильме на самом деле небоскреб Georgia-Pacific в центре города Атланта, штат Джорджия.
  • Кевин Сорбо был первоначально подписан на главную роль, но выбыл из фильма из-за медицинских проблем.
Показать сообщения:    

Текущее время: 17-Окт 07:01

Часовой пояс: UTC - 1


Вы не можете начинать темы
Вы не можете отвечать на сообщения
Вы не можете редактировать свои сообщения
Вы не можете удалять свои сообщения
Вы не можете голосовать в опросах
Вы не можете прикреплять файлы к сообщениям
Вы не можете скачивать файлы

!ВНИМАНИЕ!
Сайт не предоставляет электронные версии произведений, а занимается лишь коллекционированием и каталогизацией ссылок, присылаемых и публикуемых на форуме нашими читателями. Если вы являетесь правообладателем какого-либо представленного материала и не желаете, чтобы ссылка на него находилась в нашем каталоге, свяжитесь с нами, и мы незамедлительно удалим ее. Файлы для обмена на трекере предоставлены пользователями сайта, и администрация не несет ответственности за их содержание. Просьба не заливать файлы, защищенные авторскими правами, а также файлы нелегального содержания!