Черный Лебедь / The Black Swan (Генри Кинг / Henry King) [1942 г., США, приключения, BDRemux 1080p] MVO (Светла) + Original Eng + Sub Eng :: Ивановский Торрент трекер
Важное объявление!
У Нас Все раздачи мультитрекерные, при нуле пиров в релизах, можете смело вставать на закачку!
 
Автор Сообщение

HUNTER

Стаж:
4 года 11 месяцев
Сообщений:
66051

Репутация: 101

[+] [-]
Вне форума [Профиль] [ЛС]

Черный Лебедь / The Black Swan-
Год выпуска: 1942
Страна: США
Жанр: приключения
Продолжительность: 01:24:41
Перевод: Профессиональный (многоголосый, закадровый) Светла
Оригинальная аудиодорожка: Английская
Cубтитры: Английские (полные, для слабослышащих)-Режиссер: Генри Кинг / Henry King
В ролях: Тайрон Пауэр, Морин О’Хара, Лэйрд Крегар, Томас Митчелл, Джордж Сэндерс, Энтони Куинн, Джордж Зукко, Эдвард Эшли, Бонни Бэннон, Фортунио Бонанова-Описание:
Начинается фильм с того, что легендарный головорез Генри Морган получает амнистию и направляется на Ямайку новым губернатором. Желая удержать своих бывших подельников от продолжения бесчинств и безобразий, Морган неожиданно встречает сопротивление в лице двух негодяев. Герой Тайрона Пауэра тем временем влюбляется в дочку предыдущего губернатора, но она отвергает его прямолинейные ухаживания. Хотя похищение и пленение прекрасной девушки на борту боевого корабля мало помогает делу любви, все резко меняется, когда при нападении Сэндерса и Куинна главному персонажу фильма приходиться драться за женщину, которую он любит…-За дорожку спасибо oar.
| IMDb | Сэмпл-Качество: BDRemux 1080p (The Black Swan 1942 1080p Blu-ray AVC DTS-HD MA 1.0, thx buchanan)
Контейнер: MKV
Видео: 1920x1080 (1.33:1), 23.976 fps, 37969 kbps
Аудио 1: Русский AC3 2.0, 48 kHz, 192 kbps
Аудио 2: Английский DTS-HD MA 1.0, 48 kHz, 1086 kbps, 24-bit (DTS Core: 1.0, 48 kHz, 768 kbps, 24-bit)
Аудио 3: Английский AC3 2.0, 48 kHz, 224 kbps — Комментарии
Формат субтитров: softsub (SRT)
СкриншотыMI
General
General
Unique ID : 251553437498242567936350454749790701934 (0xBD3F6E06A9400C85BBACE01FD31F896E)
Complete name : The.Black.Swan.1942.1080p.Remux.mkv
Format : Matroska
Format version : Version 2
File size : 23.2 GiB
Duration : 1h 24mn
Overall bit rate mode : Variable
Overall bit rate : 39.3 Mbps
Movie name : The Black Swan / Черный лебедь (1942) – RuTracker
Encoded date : UTC 2014-06-04 18:51:45
Writing application : mkvmerge v6.1.0 ('Old Devil') built on Mar 2 2013 14:32:37
Writing library : libebml v1.3.0 + libmatroska v1.4.0
Attachment : Yes
Video
ID : 1
Format : AVC
Format/Info : Advanced Video Codec
Format profile : High@L4.1
Format settings, CABAC : Yes
Format settings, ReFrames : 4 frames
Codec ID : V_MPEG4/ISO/AVC
Duration : 1h 24mn
Bit rate mode : Variable
Maximum bit rate : 40.0 Mbps
Width : 1 920 pixels
Height : 1 080 pixels
Display aspect ratio : 16:9
Frame rate mode : Constant
Frame rate : 23.976 fps
Color space : YUV
Chroma subsampling : 4:2:0
Bit depth : 8 bits
Scan type : Progressive
Language : English
Default : Yes
Forced : No
Audio #1
ID : 2
Format : AC-3
Format/Info : Audio Coding 3
Mode extension : CM (complete main)
Format settings, Endianness : Big
Codec ID : A_AC3
Duration : 1h 24mn
Bit rate mode : Constant
Bit rate : 192 Kbps
Channel(s) : 2 channels
Channel positions : Front: L R
Sampling rate : 48.0 KHz
Bit depth : 16 bits
Compression mode : Lossy
Stream size : 116 MiB (0%)
Title : MVO – Светла
Language : Russian
Default : Yes
Forced : No
Audio #2
ID : 3
Format : DTS
Format/Info : Digital Theater Systems
Format profile : MA / Core
Mode : 16
Format settings, Endianness : Big
Codec ID : A_DTS
Duration : 1h 24mn
Bit rate mode : Variable
Bit rate : Unknown / 768 Kbps
Channel(s) : 1 channel
Channel positions : Front: C
Sampling rate : 48.0 KHz
Bit depth : 24 bits
Compression mode : Lossless / Lossy
Title : Original
Language : English
Default : No
Forced : No
Audio #3
ID : 4
Format : AC-3
Format/Info : Audio Coding 3
Mode extension : CM (complete main)
Format settings, Endianness : Big
Codec ID : A_AC3
Duration : 1h 24mn
Bit rate mode : Constant
Bit rate : 224 Kbps
Channel(s) : 2 channels
Channel positions : Front: L R
Sampling rate : 48.0 KHz
Bit depth : 16 bits
Compression mode : Lossy
Stream size : 136 MiB (1%)
Title : Commentary by Rudy Behlmer and Maureen O'Hara
Language : English
Default : No
Forced : No
Text #1
ID : 5
Format : UTF-8
Codec ID : S_TEXT/UTF8
Codec ID/Info : UTF-8 Plain Text
Language : English
Default : No
Forced : No
Text #2
ID : 6
Format : UTF-8
Codec ID : S_TEXT/UTF8
Codec ID/Info : UTF-8 Plain Text
Title : SDH
Language : English
Default : No
Forced : No
Menu
00:00:00.000 : en:Chapter 01
00:01:49.067 : en:Chapter 02
00:06:20.630 : en:Chapter 03
00:12:35.796 : en:Chapter 04
00:14:29.201 : en:Chapter 05
00:16:04.630 : en:Chapter 06
00:20:01.450 : en:Chapter 07
00:24:41.688 : en:Chapter 08
00:30:01.132 : en:Chapter 09
00:34:47.585 : en:Chapter 10
00:39:01.672 : en:Chapter 11
00:40:51.991 : en:Chapter 12
00:44:33.837 : en:Chapter 13
00:47:41.441 : en:Chapter 14
00:53:39.758 : en:Chapter 15
00:59:35.196 : en:Chapter 16
01:06:40.621 : en:Chapter 17
01:12:01.650 : en:Chapter 18
01:17:59.675 : en:Chapter 19
01:20:48.134 : en:Chapter 20

_________________
Показать сообщения:    

Текущее время: Сегодня 05:29

Часовой пояс: GMT



Вы не можете начинать темы
Вы не можете отвечать на сообщения
Вы не можете редактировать свои сообщения
Вы не можете удалять свои сообщения
Вы не можете голосовать в опросах
Вы не можете прикреплять файлы к сообщениям
Вы не можете скачивать файлы