Важное объявление!
У Нас Все раздачи мультитрекерные, при нуле пиров в релизах, можете смело вставать на закачку!
 
Автор Сообщение

HUNTER

Стаж:
4 года 6 месяцев
Сообщений:
60975

Репутация: 101

[+] [-]
Вне форума [Профиль] [ЛС]

~ Черный Красавчик / Black Beauty ~-
Страна: Великобритания, Испания
Жанр: драма, семейный, экранизация
Год выпуска: 1971
Продолжительность: 01:45:54-Перевод: субтитры (adamovna)
Cубтитры: русские, английские (zaphod@TWB)
Оригинальная аудиодорожка: английский-Режиссер: Джеймс Хилл / James Hill
В ролях: Марк Лестер / Mark Lester, Вальтер Слезак / Walter Slezak, Питер Ли Лоуренс / Peter Lee Lawrence, Урсула Глас / Ursula Glas, Патрик Моуэр / Patrick Mower, Джон Неттлтон / John Nettleton, Мария Ром / Maria Rohm, Эдди Голден / Eddie Golden, Клайв Джерати / Clive Geraghty, Джон Хоуи / John Hoey
Описание:
Прекрасный черный жеребенок появился на ферме Эвана, и он обещает своему сыну Джо, что малыш будет принадлежать ему. Мальчик и жеребенок растут вместе, они становятся неразлучны. Но когда умирает старый сквайр, то владение фермой и всеми лошадьми переходит в наследство его сыну, который прожигает и свою жизнь, и состояние отца. Так начинаются злоключения Черного Красавчика. Чередой в жизни коня проходят все новые и новые хозяева - он попадает к цыганам, затем выступает в испанском цирке, его дарят прекрасной леди, а с ее женихом он участвует в войне, но верного боевого коня снова предают, и он может погибнуть от болезни или непосильной работы в угольной шахте. Проходят годы, но, ни выросший Джо не забывает своего старого друга, ни конь не может забыть своего первого любимого хозяина...
Доп. информация
Релиз для IMDb: 5,3 (634) СЭМПЛ http://multi-up.com/974556--Фильм снят по мотивам книги Анны Сьюэлл"Черный Красавчик" ("Black Beauty")-Качество видео: BDRip 720p
Формат видео: MKV
Видео: 1 280 х 720 (16:9), 23.976 fps, 5 260 Kbps, 0.238 bit/pixel
Аудио: ENG AC3, 48.0 KHz, 640 Kbps, 2 channels, Original
Субтитры: русские, английские
MediaInfo
General
Unique ID : 254879525043968445532803788509396724167 (0xBFC002CD936693A8A26E1F0ED911E9C7)
Complete name : F:Black Beauty (1971) BDRip 720p.mkv
Format : Matroska
Format version : Version 1
File size : 4.37 GiB
Duration : 1h 45mn
Overall bit rate : 5 904 Kbps
Encoded date : UTC 2014-05-18 09:08:24
Writing application : mkvmerge v2.4.0 ('Fumbling Towards Ecstasy') built on Oct 11 2008 20:13:15
Writing library : libebml v0.7.7 + libmatroska v0.8.1
Video #1
ID : 1
Format : AVC
Format/Info : Advanced Video Codec
Format profile : High@L4.1
Format settings, CABAC : Yes
Format settings, ReFrames : 5 frames
Codec ID : V_MPEG4/ISO/AVC
Duration : 1h 45mn
Bit rate : 5 260 Kbps
Width : 1 280 pixels
Height : 720 pixels
Display aspect ratio : 16:9
Frame rate : 23.976 fps
Color space : YUV
Chroma subsampling : 4:2:0
Bit depth : 8 bits
Scan type : Progressive
Bits/(Pixel*Frame) : 0.238
Stream size : 3.81 GiB (87%)
Writing library : x264 core 128 r2216 198a7ea
Encoding settings : cabac=1 / ref=5 / deblock=1:0:0 / analyse=0x3:0x133 / me=umh / subme=7 / psy=1 / psy_rd=1.00:0.00 / mixed_ref=1 / me_range=16 / chroma_me=1 / trellis=1 / 8x8dct=1 / cqm=0 / deadzone=21,11 / fast_pskip=0 / chroma_qp_offset=-2 / threads=12 / lookahead_threads=2 / sliced_threads=0 / nr=0 / decimate=1 / interlaced=0 / bluray_compat=0 / constrained_intra=0 / bframes=3 / b_pyramid=2 / b_adapt=2 / b_bias=0 / direct=3 / weightb=1 / open_gop=0 / weightp=2 / keyint=250 / keyint_min=23 / scenecut=40 / intra_refresh=0 / rc_lookahead=50 / rc=2pass / mbtree=1 / bitrate=5260 / ratetol=1.0 / qcomp=0.60 / qpmin=0 / qpmax=69 / qpstep=4 / cplxblur=20.0 / qblur=0.5 / ip_ratio=1.40 / aq=1:1.00
Language : English
Audio #2
ID : 2
Format : AC-3
Format/Info : Audio Coding 3
Mode extension : CM (complete main)
Codec ID : A_AC3
Duration : 1h 45mn
Bit rate mode : Constant
Bit rate : 640 Kbps
Channel(s) : 2 channels
Channel positions : Front: L R
Sampling rate : 48.0 KHz
Bit depth : 16 bits
Compression mode : Lossy
Stream size : 485 MiB (11%)
Language : English
Text #3
ID : 3
Format : UTF-8
Codec ID : S_TEXT/UTF8
Codec ID/Info : UTF-8 Plain Text
Title : sub Rus (adamovna)
Language : Russian
Text #4
ID : 4
Format : UTF-8
Codec ID : S_TEXT/UTF8
Codec ID/Info : UTF-8 Plain Text
Title : sub Eng (original)
Language : English
фрагмент субтитров
242
00:26:22,898 --> 00:26:25,382
Что за чертову свинью
запрягли для меня?
243
00:26:25,551 --> 00:26:27,936
Это от Эванса.
Зовут Черный Красавчик, сэр.
244
00:26:28,106 --> 00:26:29,925
Ах, да.
245
00:26:30,087 --> 00:26:31,579
Я помню.
246
00:26:31,748 --> 00:26:33,817
Это тварь со скверным характером.
247
00:26:33,984 --> 00:26:36,533
- Я изменю его, сэр.
- Нет, нет, нет, не беспокойтесь.
248
00:26:36,700 --> 00:26:38,388
Я научу его.
249
00:26:38,553 --> 00:26:39,860
Для начала вздернем голову повыше.
250
00:26:40,023 --> 00:26:42,027
- Это уже все, насколько возможно, сэр.
- Я сказал, вздернуть выше!
251
00:26:42,195 --> 00:26:43,535
Хорошо, сэр.
252
00:26:45,262 --> 00:26:46,569
Так.
253
00:26:46,732 --> 00:26:49,313
- Давайте, повыше.
- Тпруу, спокойно.
254
00:26:49,575 --> 00:26:50,783
Тпруу.
255
00:26:51,108 --> 00:26:53,080
- Выше.
- Стой, стой.
256
00:26:53,824 --> 00:26:57,048
- Он не привык к мартингалу, хозяин.
- Животное чувствительно, как ребенок, сэр.
257
00:26:57,210 --> 00:27:01,165
Он скоро научится быть менее чувствительным.
Пошел, спокойно! Пошел!
258
00:27:01,874 --> 00:27:04,237
Пошел, голову выше, пошел!
259
00:27:05,421 --> 00:27:08,645
Пьянство, карты и
издевательство над лошадьми.
260
00:27:08,807 --> 00:27:11,356
Что за прекрасная жизнь -
быть джентльменом!
261
00:27:22,354 --> 00:27:24,074
Тпру.. стой.
262
00:27:24,398 --> 00:27:26,402
Этот черт чуть не выкинул меня.
263
00:27:26,570 --> 00:27:27,877
Он горяч, да, сэр?
264
00:27:28,296 --> 00:27:29,919
Да.
265
00:27:30,084 --> 00:27:33,592
- Не распрягай его.
- Ему будет неудобно, сэр.
266
00:27:35,963 --> 00:27:37,749
Это меня очень даже устраивает.
posterscoverскриншоты

_________________
Показать сообщения:    

Текущее время: Сегодня 18:54

Часовой пояс: GMT



Вы не можете начинать темы
Вы не можете отвечать на сообщения
Вы не можете редактировать свои сообщения
Вы не можете удалять свои сообщения
Вы не можете голосовать в опросах
Вы не можете прикреплять файлы к сообщениям
Вы не можете скачивать файлы
Наши партнеры: интернет магазин Ивановского трикотажа textilla.ru