Ивановский Торрент трекер
Яндекс.Погода
 

[Цитировать]
HUNTER

Черный котел / The Black Cauldron
Страна: США
Жанр: фэнтези, приключения
Продолжительность: 01:20:08
Год выпуска: 1985
Перевод 1: Профессиональный (дублированный) Пифагор
Перевод 2: Авторский (одноголосый закадровый) Юрий Живов
Русские субтитры: есть
Режиссёр: Тед Берман / Ted Berman, Ричард Рич / Richard Rich
Описание: Главный герой — Таран, мальчик-свинопас, мечтающий стать великим воином и защитником родного Придейна. Его антагонист — злой и могущественный Рогатый король, вознамерившийся завладеть Чёрным котлом и с помощью заключённой в нём силы воскресить армию нежити и покорить мир. Однако найти Чёрный котёл — непростая задача. Его местонахождение может указать волшебная свинка Хен Вен, живущая у старого волшебника Даллбена. Узнав о намерениях Рогатого короля, Даллбен поручает Тарану отвести свинку в надёжное место. По дороге Таран теряет Хен Вен, и начинаются его приключения.
Доп. информация: Дубляж с раздачи phaeton77, перевод Живова с раздачи Саша и Серёжа. Синхронизация переводов - Dreven.
Семпл: http://multi-up.com/1030269
Качество: WEB-DL 720p
Формат: MKV
Видео: 1280x542 (2.35:1), 23.976 fps, AVC, ~3975 Kbps, 0.239 bits/pixel
Аудио 1: Russian, 48.0 KHz, AC3, 2 ch, 192 Kbps - Пифагор
Аудио 2: Russian, 48.0 KHz, AC3, 6 ch, 384 Kbps - Юрий Живов
Аудио 3: English, 48.0 KHz, AC3, 6 ch, 384 Kbps
Субтитры: русские, английские, английские для слабослышащих

Подробные технические данные

GeneralUnique ID : 242865728264401293796703520618198467648 (0xB6B63CE3EEDCA107BD982D7314F20440)Complete name : C:\The Black Cauldron.mkvFormat : MatroskaFormat version : Version 4 / Version 2File size : 2.82 GiBDuration : 1h 20mnOverall bit rate : 5 035 KbpsEncoded date : UTC 2015-01-31 04:39:18Writing application : mkvmerge v7.5.0 ('Glass Culture') 64bit built on Jan 4 2015 16:48:44Writing library : libebml v1.3.1 + libmatroska v1.4.2DURATION : 01:15:34.460000000NUMBER_OF_FRAMES : 883NUMBER_OF_BYTES : 25842_STATISTICS_WRITING_APP : mkvmerge v7.5.0 ('Glass Culture') 64bit built on Jan 4 2015 16:48:44_STATISTICS_WRITING_DATE_UT : 2015-01-31 04:39:18_STATISTICS_TAGS : BPS DURATION NUMBER_OF_FRAMES NUMBER_OF_BYTES
VideoID : 1Format : AVCFormat/Info : Advanced Video CodecFormat profile : Main@L3.1Format settings, CABAC : NoFormat settings, ReFrames : 2 framesCodec ID : V_MPEG4/ISO/AVCDuration : 1h 20mnBit rate : 3 975 KbpsWidth : 1 280 pixelsHeight : 542 pixelsDisplay aspect ratio : 2.35:1Frame rate mode : ConstantFrame rate : 23.976 fpsColor space : YUVChroma subsampling : 4:2:0Bit depth : 8 bitsScan type : ProgressiveBits/(Pixel*Frame) : 0.239Stream size : 2.22 GiB (79%)Language : EnglishDefault : YesForced : NoColor primaries : BT.709Transfer characteristics : BT.709Matrix coefficients : BT.709Color range : Limited
Audio #1ID : 2Format : AC-3Format/Info : Audio Coding 3Mode extension : CM (complete main)Format settings, Endianness : BigCodec ID : A_AC3Duration : 1h 20mnBit rate mode : ConstantBit rate : 192 KbpsChannel(s) : 2 channelsChannel positions : Front: L RSampling rate : 48.0 KHzBit depth : 16 bitsCompression mode : LossyStream size : 110 MiB (4%)Title : ПифагорLanguage : RussianDefault : YesForced : No
Audio #2ID : 3Format : AC-3Format/Info : Audio Coding 3Mode extension : CM (complete main)Format settings, Endianness : BigCodec ID : A_AC3Duration : 1h 20mnBit rate mode : ConstantBit rate : 384 KbpsChannel(s) : 6 channelsChannel positions : Front: L C R, Side: L R, LFESampling rate : 48.0 KHzBit depth : 16 bitsCompression mode : LossyStream size : 220 MiB (8%)Title : Юрий ЖивовLanguage : RussianDefault : NoForced : No
Audio #3ID : 4Format : AC-3Format/Info : Audio Coding 3Mode extension : CM (complete main)Format settings, Endianness : BigCodec ID : A_AC3Duration : 1h 20mnBit rate mode : ConstantBit rate : 384 KbpsChannel(s) : 6 channelsChannel positions : Front: L C R, Side: L R, LFESampling rate : 48.0 KHzBit depth : 16 bitsCompression mode : LossyStream size : 220 MiB (8%)Language : EnglishDefault : NoForced : No
Text #1ID : 5Format : UTF-8Codec ID : S_TEXT/UTF8Codec ID/Info : UTF-8 Plain TextLanguage : RussianDefault : NoForced : No
Text #2ID : 6Format : UTF-8Codec ID : S_TEXT/UTF8Codec ID/Info : UTF-8 Plain TextLanguage : EnglishDefault : NoForced : No
Text #3ID : 7Format : UTF-8Codec ID : S_TEXT/UTF8Codec ID/Info : UTF-8 Plain TextTitle : SDHLanguage : EnglishDefault : NoForced : No
Menu00:00:00.000 : en:Legend Of The Cauldron/Main Title00:01:22.000 : en:The Dreamer00:06:34.000 : en:Hen Wen's Vision00:09:32.000 : en:The Great Horned King00:11:23.000 : en:An Introduction To Gurgi00:15:08.000 : en:Hen Wen Is Captured00:18:19.000 : en:The Horned King's Demand00:26:06.000 : en:Princess Eilonwy00:30:15.000 : en:The Escape00:37:59.000 : en:Gurgi's Return00:42:32.000 : en:King Eidilleg And The Fair Folk00:48:46.000 : en:A Trade With Witches Of Morva00:58:09.000 : en:The Power Of The Black Cauldron01:03:31.000 : en:Reversing The Spell01:10:47.000 : en:Another Bargain01:16:05.000 : en:End Credits

Скриншоты



Показать сообщения:    

Текущее время: 18-Дек 03:31

Часовой пояс: UTC ± 0


Вы не можете начинать темы
Вы не можете отвечать на сообщения
Вы не можете редактировать свои сообщения
Вы не можете удалять свои сообщения
Вы не можете голосовать в опросах
Вы не можете прикреплять файлы к сообщениям
Вы не можете скачивать файлы

!ВНИМАНИЕ!
Сайт не предоставляет электронные версии произведений, а занимается лишь коллекционированием и каталогизацией ссылок, присылаемых и публикуемых на форуме нашими читателями. Если вы являетесь правообладателем какого-либо представленного материала и не желаете, чтобы ссылка на него находилась в нашем каталоге, свяжитесь с нами, и мы незамедлительно удалим ее. Файлы для обмена на трекере предоставлены пользователями сайта, и администрация не несет ответственности за их содержание. Просьба не заливать файлы, защищенные авторскими правами, а также файлы нелегального содержания!