Ивановский Торрент трекер
Яндекс.Погода
Статистика раздачи
Размер:  3.99 GB   |    Зарегистрирован:  1 год 2 месяца   |    Скачан:  0 раз

Полного источника не было: Никогда

 
     
 
 
 

[Цитировать]
HUNTER

Черные праздники / Holidays«У каждого своя тёмная сторона»
Страна: США
Жанр: ужасы
Год выпуска: 2016
Продолжительность: 01:39:59
-
Перевод: Профессиональный (дублированный) 100PRO
Cубтитры: нет
Оригинальная аудиодорожка: нет
-
Режиссер: Энтони Скотт Бёрнс / Anthony Scott Burns, Кевин Колш / Kevin Kolsch, Николас МакКарти / Nicholas McCarthy
В ролях: Лоренца Иззо, Сет Грин, Марк Стегер, Харли Куинн Смит, Джоселин Донахью, Алекса Палладино, Клэр Грант, Майкл Гросс, Рут Брэдли, Ава Акрес
-
Описание: Мы привыкли ждать от праздников только всего самого доброго и хорошего, но у каждого из них есть и своя темная сторона - страшные и леденящие душу истории, которые не могли произойти в обычный день. Все они случились в одном богом забытом городе, во время таких праздников, как Хэллоуин, Пасха, День Святого Валентина, Рождество...

>>> Собственная запись со спутника Eutelsat 36A/36B (36°E) | Кинопремьера HD (эфир 06.10.2016г.)
Тип релиза: HDTV 1080i
Контейнер: MKV
Видео: MPEG-4 AVC / PAL 16:9 / 1920x1080 (2,35:1) / 5128 kbps / 25,000 fps / 0.049 bit/pixel / High@L4
Аудио 1: Russian / Dolby Digital Audio / 2.0 Ch / 48 kHz / 384 kbps / 16 bit
Аудио 2: Russian / MPEG-2 Audio / 2.0 Ch / 48 kHz / 192 kbps / 16 bit

MediaInfo

Общее
Уникальный идентификатор                 : 176662981202395028622240825215401021031 (0x84E80D7453692224A6105BA0B2674E67)
Полное имя                               : D:\Holidays 2016 1080i HDTV DD2.0 MPEG4-flaSI-I\Holidays.2016.HDTV.1080i.mkv
Формат                                   : Matroska
Версия формата                           : Version 4 / Version 2
Размер файла                             : 3,99 Гбайт
Продолжительность                        : 1 ч. 39 м.
Общий поток                              : 5711 Кбит/сек
Название фильма                          : Release for RuTracker © flaSI-I
Дата кодирования                         : UTC 2016-10-06 19:52:12
Программа кодирования                    : mkvmerge v9.4.2 ('So High') 64bit
Библиотека кодирования                   : libebml v1.3.4 + libmatroska v1.4.5
Видео
Идентификатор                            : 1
Формат                                   : AVC
Формат/Информация                        : Advanced Video Codec
Профиль формата                          : High@L4
Параметр CABAC формата                   : Да
Параметр ReFrames формата                : 4 кадра
Идентификатор кодека                     : V_MPEG4/ISO/AVC
Продолжительность                        : 1 ч. 39 м.
Битрейт                                  : 5128 Кбит/сек
Ширина                                   : 1920 пикселей
Высота                                   : 1080 пикселей
Соотношение сторон                       : 16:9
Режим частоты кадров                     : Переменный
Частота кадров                           : 50,000 кадров/сек
Частота кадров в оригинале               : 25,000 кадров/сек
Стандарт вещания                         : Component
Цветовое пространство                    : YUV
Субдискретизация насыщенности            : 4:2:0
Битовая глубина                          : 8 бит
Тип развёртки                            : Чересстрочная
Метод сохранения типа развёртки          : Раздельные поля
Порядок развёртки                        : Верхнее поле первое
Бит/(Пиксели*Кадры)                      : 0.049
Размер потока                            : 3,58 Гбайт (90%)
Язык                                     : English
Default                                  : Да
Forced                                   : Нет
Цветовой диапазон                        : Limited
Основные цвета                           : BT.709
Характеристики трансфера                 : BT.709
Коэффициенты матрицы                     : BT.709
Аудио #1
Идентификатор                            : 2
Формат                                   : AC-3
Формат/Информация                        : Audio Coding 3
Расширение режима                        : CM (complete main)
Параметр Endianness формата              : Big
Идентификатор кодека                     : A_AC3
Продолжительность                        : 1 ч. 39 м.
Вид битрейта                             : Постоянный
Битрейт                                  : 384 Кбит/сек
Каналы                                   : 2 канала
Расположение каналов                     : Front: L R
Частота                                  : 48,0 КГц
Частота кадров                           : 31,250 кадров/сек (1536 spf)
Метод сжатия                             : С потерями
Размер потока                            : 275 Мбайт (7%)
Заголовок                                : DUB / 100PRO | DD2.0
Язык                                     : Russian
Default                                  : Да
Forced                                   : Нет
Аудио #2
Идентификатор                            : 3
Формат                                   : MPEG Audio
Версия формата                           : Version 1
Профиль формата                          : Layer 2
Идентификатор кодека                     : A_MPEG/L2
Идентификатор кодека/Подсказка           : MP2
Продолжительность                        : 1 ч. 39 м.
Вид битрейта                             : Постоянный
Битрейт                                  : 192 Кбит/сек
Каналы                                   : 2 канала
Частота                                  : 48,0 КГц
Частота кадров                           : 41,667 кадра/сек (1152 spf)
Метод сжатия                             : С потерями
Размер потока                            : 137 Мбайт (3%)
Заголовок                                : DUB / 100PRO | DD2.0
Язык                                     : Russian
Default                                  : Нет
Forced                                   : Нет
[iv-torrents.ru].t62750.torrent
Торрент: Зарегистрирован [ 2016-10-08 19:06 ] · C45EDE20852274DC2CADD9A7139E3A7C124780DE

Скачать .torrent

Скачать

20 KB

Статус: проверено
Скачан: 0 раз
Размер: 3.99 GB
terms.php


Показать сообщения:    

Текущее время: 13-Дек 01:34

Часовой пояс: UTC ± 0


Вы не можете начинать темы
Вы не можете отвечать на сообщения
Вы не можете редактировать свои сообщения
Вы не можете удалять свои сообщения
Вы не можете голосовать в опросах
Вы не можете прикреплять файлы к сообщениям
Вы можете скачивать файлы

!ВНИМАНИЕ!
Сайт не предоставляет электронные версии произведений, а занимается лишь коллекционированием и каталогизацией ссылок, присылаемых и публикуемых на форуме нашими читателями. Если вы являетесь правообладателем какого-либо представленного материала и не желаете, чтобы ссылка на него находилась в нашем каталоге, свяжитесь с нами, и мы незамедлительно удалим ее. Файлы для обмена на трекере предоставлены пользователями сайта, и администрация не несет ответственности за их содержание. Просьба не заливать файлы, защищенные авторскими правами, а также файлы нелегального содержания!