Ивановский Торрент трекер
Яндекс.Погода
 

[Цитировать]
HUNTER

Чернокнижник 3: Последняя битва / Warlock III: The End of Innocence
Страна: США
Жанр: ужасы, фэнтези
Год выпуска: 1999
Продолжительность: 01:34:54
Перевод: Профессиональный (двухголосый закадровый) Стар Трек
Cубтитры: английские
Оригинальная аудиодорожка: английский
Режиссер: Эрик Фрисер / Eric Freiser
В ролях: Брюс Пэйн, Эшли Лоуренс, Пол Френсис, Ян Швайтерман, Энджел Борис, Рик Хёрст, Боти Блисс, Имонн Дрэйпер, Катрин Сиггинз, Маджелла Корли...
Описание: Он вернулся, чтобы обрести бессмертие. Для этого он должен забрать ее кровь и душу. 350 лет назад ведьма из Новой Англии Кэтрин Миллер вырвала свою дочь из лап демонического Чернокнижника. Чтобы обрести бессмертие, он должен был забрать кровь и душу дочери Кэтрин, сделав ее вечной Невестой Тьмы.
Но Чернокнижнику пришлось затаиться до наших дней. Крис Миллер росла сиротой. Узнав об оставленном ей в наследство заброшенном доме 16-го века, она решила осмотреть его и провести в нем выходные.
Крис сразу почувствовала какую — то странную ауру дома, а ночью ее мучили кошмары и необычные видения. Но приехавшие в гости друзья рассеяли ее страхи. А в самый разгар веселья в доме появился незнакомец с изящными манерами, очаровавший всех присутствующих.
Этот нежданный гость — Чернокнижник, явившийся забрать то, что обеспечит ему бессмертие — душу Крис. Но жертва должна отдать ее добровольно…
Доп. информация: звук отсюда, перевод "Екатеринбург Арт" указан ошибочно.
Сэмпл: http://multi-up.com/1001458
Тип релиза: WEB-DL 720p
Контейнер: MKV
Видео: 1280x718 (16:9), 23.976 fps, AVC, ~3995 Kbps, 0.181 bits/pixel
Аудио 1: Russian, 48.0 KHz, AC3, 2 ch, 128 Kbps
Аудио 2: English, 48.0 KHz, AC3, 2 ch, 192 Kbps

MediaInfo

General
Unique ID : 250622805577181591093401026712015633258 (0xBC8C32546D236DDFA647DD8D3AD67B6A)
Complete name : C:\Warlock - The End of Innocence.mkv
Format : Matroska
Format version : Version 4 / Version 2
File size : 2.92 GiB
Duration : 1h 34mn
Overall bit rate : 4 403 Kbps
Movie name :
Encoded date : UTC 2014-09-25 15:15:33
Writing application : mkvmerge v7.2.0 ('On Every Street') 64bit built on Sep 13 2014 15:52:10
Writing library : libebml v1.3.0 + libmatroska v1.4.1
DURATION : 01:34:53.888000000
NUMBER_OF_FRAMES : 177934
NUMBER_OF_BYTES : 91102208
_STATISTICS_WRITING_APP : mkvmerge v7.2.0 ('On Every Street') 64bit built on Sep 13 2014 15:52:10
_STATISTICS_WRITING_DATE_UTC : 2014-09-25 15:15:33
_STATISTICS_TAGS : BPS DURATION NUMBER_OF_FRAMES NUMBER_OF_BYTES
Video
ID : 1
Format : AVC
Format/Info : Advanced Video Codec
Format profile : High@L3.1
Format settings, CABAC : No
Format settings, ReFrames : 2 frames
Codec ID : V_MPEG4/ISO/AVC
Duration : 1h 34mn
Bit rate : 3 995 Kbps
Width : 1 280 pixels
Height : 718 pixels
Display aspect ratio : 16:9
Frame rate mode : Constant
Frame rate : 23.976 fps
Color space : YUV
Chroma subsampling : 4:2:0
Bit depth : 8 bits
Scan type : Progressive
Bits/(Pixel*Frame) : 0.181
Stream size : 2.65 GiB (91%)
Language : English
Default : Yes
Forced : No
Color primaries : BT.709
Transfer characteristics : BT.709
Matrix coefficients : BT.709
Audio #1
ID : 2
Format : AC-3
Format/Info : Audio Coding 3
Mode extension : CM (complete main)
Format settings, Endianness : Big
Codec ID : A_AC3
Duration : 1h 34mn
Bit rate mode : Constant
Bit rate : 128 Kbps
Channel(s) : 2 channels
Channel positions : Front: L R
Sampling rate : 48.0 KHz
Bit depth : 16 bits
Compression mode : Lossy
Stream size : 86.9 MiB (3%)
Language : Russian
Default : Yes
Forced : No
Audio #2
ID : 3
Format : AC-3
Format/Info : Audio Coding 3
Mode extension : CM (complete main)
Format settings, Endianness : Big
Codec ID : A_AC3
Duration : 1h 34mn
Bit rate mode : Constant
Bit rate : 192 Kbps
Channel(s) : 2 channels
Channel positions : Front: L R
Sampling rate : 48.0 KHz
Bit depth : 16 bits
Compression mode : Lossy
Stream size : 130 MiB (4%)
Language : English
Default : No
Forced : No
Text
ID : 4
Format : UTF-8
Codec ID : S_TEXT/UTF8
Codec ID/Info : UTF-8 Plain Text
Language : English
Default : No
Forced : No
Menu
00:00:00.000 : en:Chapter 1
00:03:10.000 : en:Chapter 2
00:11:35.000 : en:Chapter 3
00:17:41.000 : en:Chapter 4
00:25:06.000 : en:Chapter 5
00:34:03.000 : en:Chapter 6
00:39:38.000 : en:Chapter 7
00:49:11.000 : en:Chapter 8
00:57:43.000 : en:Chapter 9
01:03:39.000 : en:Chapter 10
01:10:42.000 : en:Chapter 11
01:20:29.000 : en:Chapter 12
01:30:49.000 : en:Chapter 13

Скриншоты

Показать сообщения:    

Текущее время: 16-Окт 20:51

Часовой пояс: UTC - 1


Вы не можете начинать темы
Вы не можете отвечать на сообщения
Вы не можете редактировать свои сообщения
Вы не можете удалять свои сообщения
Вы не можете голосовать в опросах
Вы не можете прикреплять файлы к сообщениям
Вы не можете скачивать файлы

!ВНИМАНИЕ!
Сайт не предоставляет электронные версии произведений, а занимается лишь коллекционированием и каталогизацией ссылок, присылаемых и публикуемых на форуме нашими читателями. Если вы являетесь правообладателем какого-либо представленного материала и не желаете, чтобы ссылка на него находилась в нашем каталоге, свяжитесь с нами, и мы незамедлительно удалим ее. Файлы для обмена на трекере предоставлены пользователями сайта, и администрация не несет ответственности за их содержание. Просьба не заливать файлы, защищенные авторскими правами, а также файлы нелегального содержания!