Важное объявление!
У Нас Все раздачи мультитрекерные, при нуле пиров в релизах, можете смело вставать на закачку!
 
Автор Сообщение

HUNTER

Стаж:
4 года 11 месяцев
Сообщений:
66027

Репутация: 101

[+] [-]
Вне форума [Профиль] [ЛС]

Черное воскресенье / Black Sunday
Страна: США
Студия: Paramount Pictures
Жанр: детектив, драма
Год выпуска: 1977
Продолжительность: 02:23:07
Перевод: Профессиональный (двухголосый закадровый)
Cубтитры: английские
Оригинальная аудиодорожка: английский
Режиссер: Джон Франкенхаймер /John Frankenheimer
В ролях: Роберт Шоу, Брюс Дерн, Марта Келлер, Фриц Уивер, Стивен Китс, Беким Фехмию, Майкл В. Гаццо, Уильям Дэниелс, Уолтер Готелл, Виктор Кампос
Описание: Фильм рассказывает о попытке предотвращения спецслужбами грандиозного террористического акта. Тайная организация под названием «Чёрный сентябрь», планирует осуществить невероятный по своей жестокости «акт возмездия».
Во время финальной игры суперкубка в Майами, на которой будет присутствовать сам президент США и ещё восемьдесят тысяч зрителей, террористы собираются взорвать над стадионом громадный дирижабль, с которого будет вестись телесъёмка матча. Самое жуткое заключается в том, что смертельный груз взрывчатки начинен мелкой дробью, и в случае удачного проведения теракта, и без того огромное количество потенциальных жертв увеличится ещё вдвое.
Теперь агентам разведки и ФБР в буквальном смысле предстоит совершить невозможное, чтобы остановить фанатиков-убийц!

Доп. информация: За русскую дорожку спасибо mrrfrost.

Sample
Тип релиза: WEB-DL 720p
Контейнер: MKV
Видео: MPEG4 AVC Video, H264, 16:9, 1280x546, 23.976 fps, 3953 kbps
Аудио: Russian (AC3, 2 ch, 192 kbps, 16 bits, 48.0 KHz) - DVO
Аудио 2: English (AC3, 6 ch, 384 kbps, 16 bits, 48.0 KHz) - оригинал
Формат субтитров: softsub (SRT)

MediaInfo

General
Unique ID : 238924124795533232535679947274607678028 (0xB3BF1CD5D8713515A5B79389D8F8524C)
Complete name : K:\Black Sunday 1977 WEB-DL 720p.mkv
Format : Matroska
Format version : Version 4 / Version 2
File size : 4.62 GiB
Duration : 2h 23mn
Overall bit rate : 4 621 Kbps
Encoded date : UTC 2015-10-18 05:58:23
Writing application : mkvmerge v6.1.0 ('Old Devil') built on Mar 2 2013 14:32:37
Writing library : libebml v1.3.0 + libmatroska v1.4.0
Video
ID : 1
Format : AVC
Format/Info : Advanced Video Codec
Format profile : High@L3.1
Format settings, CABAC : No
Format settings, ReFrames : 2 frames
Codec ID : V_MPEG4/ISO/AVC
Duration : 2h 23mn
Bit rate : 3 953 Kbps
Width : 1 280 pixels
Height : 546 pixels
Display aspect ratio : 2.35:1
Frame rate mode : Constant
Frame rate : 23.976 fps
Color space : YUV
Chroma subsampling : 4:2:0
Bit depth : 8 bits
Scan type : Progressive
Bits/(Pixel*Frame) : 0.236
Stream size : 3.95 GiB (86%)
Language : English
Default : Yes
Forced : No
Color primaries : BT.709
Transfer characteristics : BT.709
Matrix coefficients : BT.709
Audio #1
ID : 2
Format : AC-3
Format/Info : Audio Coding 3
Mode extension : CM (complete main)
Format settings, Endianness : Big
Codec ID : A_AC3
Duration : 2h 23mn
Bit rate mode : Constant
Bit rate : 192 Kbps
Channel count : 2 channels
Channel positions : Front: L R
Sampling rate : 48.0 KHz
Bit depth : 16 bits
Compression mode : Lossy
Stream size : 197 MiB (4%)
Language : Russian
Default : Yes
Forced : No
Audio #2
ID : 3
Format : AC-3
Format/Info : Audio Coding 3
Mode extension : CM (complete main)
Format settings, Endianness : Big
Codec ID : A_AC3
Duration : 2h 23mn
Bit rate mode : Constant
Bit rate : 384 Kbps
Channel count : 6 channels
Channel positions : Front: L C R, Side: L R, LFE
Sampling rate : 48.0 KHz
Bit depth : 16 bits
Compression mode : Lossy
Stream size : 393 MiB (8%)
Language : English
Default : No
Forced : No
Text
ID : 4
Format : UTF-8
Codec ID : S_TEXT/UTF8
Codec ID/Info : UTF-8 Plain Text
Language : English
Default : No
Forced : No

Скриншоты


_________________
Показать сообщения:    

Текущее время: Сегодня 20:20

Часовой пояс: GMT



Вы не можете начинать темы
Вы не можете отвечать на сообщения
Вы не можете редактировать свои сообщения
Вы не можете удалять свои сообщения
Вы не можете голосовать в опросах
Вы не можете прикреплять файлы к сообщениям
Вы не можете скачивать файлы