Ивановский Торрент трекер
Яндекс.Погода
 

[Цитировать]
HUNTER

Черная пуля / Black Bullet Страна: Япония
Год выпуска: 2014 г.
Жанр: Приключения
Продолжительность: 12 эп. по 25 мин
русские субтитры: внешним файлом-Перевод: LeDi-MaHo Team
Перевод & лирика: MantisFL
Редакция & оформление: Holydarkness
Режиссер: Кодзима Масаюки
Студия:
Описание: Эта история происходит в недалеком будущем, где человечество было подвержено атаке разносящими вирус паразитами, именуемыми Гастриа. В результате этого, будучи изгнанными из своих родных домов, род людей существует лишь на небольшой территории, где, уже потерявшие всякую надежду, они живут бок о бок со смертью.
В этом темном мире живёт Рентаро, парень, чей дом находится рядом с Токио, состоящий в "Гражданской Безопасности" — организации, занимающейся борьбой с теми самыми паразитами Гастриа. Вместе со своей напарницей Энджу они выполняют самые рискованные задания.
Выполняя одну миссию опаснее другой, работая день за днем, однажды, они получают специальное задание от правительства по предотвращению разрушения Токио.
И вот именно так начинается повествование об одной из самых значимых миссий по защите человечества.
Равка: Zero-Raws
Хардсаб: Отсутствует
Качество: HDTVRip
Формат видео: mp4
Видео: AVC, 8 bits, 1280x720; 23.976 fps; 1791 Kbps, (16:9)
Аудио:
1. JP - AAC, 48.0 KHz, 252 kbps, 2 ch

Список эпизодов

01.Последняя надежда
02. Маска безумия

Скриншоты

MediaInfo

Общее
Полное имя : D:\[Zero-Raws]\[Zero-Raws] Black Bullet\[Zero-Raws] Black Bullet - 01 (MX 1280x720 x264 AAC).mp4
Формат : MPEG-4
Профиль формата : Base Media
Идентификатор кодека : isom
Размер файла : 352 Мбайт
Продолжительность : 23 м.
Режим общего битрейта : Переменный
Общий поток : 2048 Кбит/сек
Дата кодирования : UTC 2014-04-09 03:09:15
Дата пометки : UTC 2014-04-09 03:09:15
Видео
Идентификатор : 1
Формат : AVC
Формат/Информация : Advanced Video Codec
Профиль формата : High@L3.1
Параметр CABAC формата : Да
Параметр ReFrames формата : 4 кадра
Идентификатор кодека : avc1
Идентификатор кодека/Информация : Advanced Video Coding
Продолжительность : 23 м.
Битрейт : 1791 Кбит/сек
Максимальный битрейт : 15,0 Мбит/сек
Ширина : 1280 пикселей
Высота : 720 пикселей
Соотношение сторон : 16:9
Режим частоты кадров : Постоянный
Частота кадров : 23,976 кадра/сек
Цветовое пространство : YUV
Субдискретизация насыщенности : 4:2:0
Битовая глубина : 8 бит
Тип развёртки : Прогрессивная
Бит/(Пиксели*Кадры) : 0.081
Размер потока : 308 Мбайт (87%)
Библиотека кодирования : x264 core 133 r2334 a3ac64b
Настройки программы : cabac=1 / ref=3 / deblock=1:0:0 / analyse=0x3:0x113 / me=hex / subme=7 / psy=1 / psy_rd=1.00:0.00 / mixed_ref=1 / me_range=16 / chroma_me=1 / trellis=1 / 8x8dct=1 / cqm=0 / deadzone=21,11 / fast_pskip=1 / chroma_qp_offset=-2 / threads=12 / lookahead_threads=2 / sliced_threads=0 / nr=0 / decimate=1 / interlaced=0 / bluray_compat=0 / constrained_intra=0 / bframes=3 / b_pyramid=2 / b_adapt=1 / b_bias=0 / direct=1 / weightb=1 / open_gop=0 / weightp=2 / keyint=250 / keyint_min=23 / scenecut=40 / intra_refresh=0 / rc_lookahead=40 / rc=crf / mbtree=1 / crf=19.5 / qcomp=0.60 / qpmin=0 / qpmax=69 / qpstep=4 / ip_ratio=1.40 / aq=1:1.00
Дата кодирования : UTC 2014-04-09 02:47:55
Дата пометки : UTC 2014-04-09 03:09:17
Аудио
Идентификатор : 2
Формат : AAC
Формат/Информация : Advanced Audio Codec
Профиль формата : LC
Идентификатор кодека : 40
Продолжительность : 23 м.
Вид битрейта : Переменный
Битрейт : 252 Кбит/сек
Максимальный битрейт : 258 Кбит/сек
Каналы : 2 канала
Расположение каналов : Front: L R
Частота : 48,0 КГц
Метод сжатия : С потерями
Размер потока : 43,3 Мбайт (12%)
Заголовок : aac#trackID=1:lang=Japanese@GPAC0.5.1-DEV-rev4708
Язык : Japanese
Дата кодирования : UTC 2014-04-09 03:09:16
Дата пометки : UTC 2014-04-09 03:09:17


Показать сообщения:    

Текущее время: 14-Дек 00:51

Часовой пояс: UTC ± 0


Вы не можете начинать темы
Вы не можете отвечать на сообщения
Вы не можете редактировать свои сообщения
Вы не можете удалять свои сообщения
Вы не можете голосовать в опросах
Вы не можете прикреплять файлы к сообщениям
Вы не можете скачивать файлы

!ВНИМАНИЕ!
Сайт не предоставляет электронные версии произведений, а занимается лишь коллекционированием и каталогизацией ссылок, присылаемых и публикуемых на форуме нашими читателями. Если вы являетесь правообладателем какого-либо представленного материала и не желаете, чтобы ссылка на него находилась в нашем каталоге, свяжитесь с нами, и мы незамедлительно удалим ее. Файлы для обмена на трекере предоставлены пользователями сайта, и администрация не несет ответственности за их содержание. Просьба не заливать файлы, защищенные авторскими правами, а также файлы нелегального содержания!