Ивановский Торрент трекер
Яндекс.Погода
 

[Цитировать]
HUNTER

Черная месса / Black Mass
Страна: США
Студия: Cross Creek Pictures, Grisbi Productions, Le, Infinitum Nihil
Жанр: драма, криминал, биография
Год выпуска: 2015
Продолжительность: 02:02:36
Перевод: Профессиональный (дублированный)
Перевод 2: Одноголосый закадровый - М. Яроцкий (Ненормативная лексика)
Cубтитры: Rus, Ukr, Eng
Оригинальная аудиодорожка: английский
Режиссер: Скотт Купер / Scott Cooper
В ролях: Джонни Депп, Джоэл Эдгертон, Бенедикт Камбербэтч, Кевин Бейкон, Джесси Племонс, Питер Сарсгаард, Кори Столл, Дакота Джонсон, Рори Кокрейн, Дэвид Харбор
Описание: Картина расскажет об Уайти Булджере, знаменитом бостонском гангстере, который 16 лет находился в бегах и был арестован в июне 2011 года в Санта-Монике. Булджер, которому уже за 80, обвинялся в рэкете, был замешан в 19 убийствах и в то же время работал информатором на ФБР. Чтобы не попасть за решетку, он исчез в 1995 году и 16 лет успешно скрывался от правосудия.

Тип релиза: BDRip 720p
Контейнер: MKV
Видео: MPEG-4 AVC, 5974 Kбит/с, 1280x534, 23,976 fps
Аудио: Rus, AC3, 640 kb/s (6 ch), 48 kHz
Аудио 2: Rus, AC3, 640 kb/s (6 ch), 48 kHz
Аудио 3: Eng, AC3, 640 kb/s (6 ch), 48 kHz
Формат субтитров: softsub (SRT)

MediaInfo

Format : Matroska
Format version : Version 4 / Version 2
File size : 6.90 GiB
Duration : 2h 2mn
Overall bit rate : 8 054 Kbps
Movie name : Чёрная месса. (Tonik)
Encoded date : UTC 2016-02-24 14:48:47
Writing application : mkvmerge v7.1.0 ('Good Love') 64bit built on Jul 27 2014 13:06:55
Writing library : libebml v1.3.0 + libmatroska v1.4.1
_STATISTICS_WRITING_APP : mkvmerge v7.1.0 ('Good Love') 64bit built on Jul 27 2014 13:06:55
_STATISTICS_WRITING_DATE_UTC : 2016-02-24 14:48:47
_STATISTICS_TAGS : BPS DURATION NUMBER_OF_FRAMES NUMBER_OF_BYTES
DURATION : 02:02:37.376000000
NUMBER_OF_FRAMES : 229918
NUMBER_OF_BYTES : 588590080
Video
ID : 1
Format : AVC
Format/Info : Advanced Video Codec
Format profile : High@L4.1
Format settings, CABAC : Yes
Format settings, ReFrames : 12 frames
Codec ID : V_MPEG4/ISO/AVC
Duration : 2h 2mn
Bit rate : 5 974 Kbps
Width : 1 280 pixels
Height : 534 pixels
Display aspect ratio : 2.40:1
Frame rate mode : Constant
Frame rate : 23.976 fps
Color space : YUV
Chroma subsampling : 4:2:0
Bit depth : 8 bits
Scan type : Progressive
Bits/(Pixel*Frame) : 0.365
Stream size : 5.12 GiB (74%)
Writing library : x264 core 148 r2638kMod 7599210
Encoding settings : cabac=1 / ref=12 / deblock=1:-3:-3 / analyse=0x3:0x133 / me=umh / subme=10 / psy=1 / fade_compensate=0.00 / psy_rd=1.00:0.00 / mixed_ref=1 / me_range=64 / chroma_me=1 / trellis=2 / 8x8dct=1 / cqm=0 / deadzone=21,11 / fast_pskip=0 / chroma_qp_offset=-2 / threads=12 / lookahead_threads=2 / sliced_threads=0 / nr=0 / decimate=0 / interlaced=0 / bluray_compat=0 / constrained_intra=0 / fgo=0 / bframes=8 / b_pyramid=2 / b_adapt=2 / b_bias=0 / direct=3 / weightb=1 / open_gop=0 / weightp=2 / keyint=250 / keyint_min=23 / scenecut=40 / intra_refresh=0 / rc_lookahead=40 / rc=crf / mbtree=0 / crf=17.0000 / qcomp=0.70 / qpmin=0 / qpmax=69 / qpstep=4 / vbv_maxrate=50000 / vbv_bufsize=62500 / crf_max=0.0 / nal_hrd=none / filler=0 / ip_ratio=1.30 / pb_ratio=1.20 / aq=3:0.60
Language : English
Default : Yes
Forced : No
Color primaries : BT.709
Transfer characteristics : BT.709
Matrix coefficients : BT.709
_STATISTICS_WRITING_APP : mkvmerge v7.1.0 ('Good Love') 64bit built on Jul 27 2014 13:06:55
_STATISTICS_WRITING_DATE_UTC : 2016-02-24 14:48:47
_STATISTICS_TAGS : BPS DURATION NUMBER_OF_FRAMES NUMBER_OF_BYTES
DURATION : 02:02:36.016000000
NUMBER_OF_FRAMES : 176368
NUMBER_OF_BYTES : 5639106972
Audio #1
ID : 2
Format : AC-3
Format/Info : Audio Coding 3
Mode extension : CM (complete main)
Format settings, Endianness : Big
Codec ID : A_AC3
Duration : 2h 2mn
Bit rate mode : Constant
Bit rate : 640 Kbps
Channel(s) : 6 channels
Channel positions : Front: L C R, Side: L R, LFE
Sampling rate : 48.0 KHz
Bit depth : 16 bits
Compression mode : Lossy
Stream size : 561 MiB (8%)
Language : Russian
Default : Yes
Forced : No
Audio #2
ID : 3
Format : AC-3
Format/Info : Audio Coding 3
Mode extension : CM (complete main)
Format settings, Endianness : Big
Codec ID : A_AC3
Duration : 2h 2mn
Bit rate mode : Constant
Bit rate : 640 Kbps
Channel(s) : 6 channels
Channel positions : Front: L C R, Side: L R, LFE
Sampling rate : 48.0 KHz
Bit depth : 16 bits
Compression mode : Lossy
Stream size : 561 MiB (8%)
Title : М. Яроцкий
Language : Russian
Default : No
Forced : No
Audio #3
ID : 4
Format : AC-3
Format/Info : Audio Coding 3
Mode extension : CM (complete main)
Format settings, Endianness : Big
Codec ID : A_AC3
Duration : 2h 2mn
Bit rate mode : Constant
Bit rate : 640 Kbps
Channel(s) : 6 channels
Channel positions : Front: L C R, Side: L R, LFE
Sampling rate : 48.0 KHz
Bit depth : 16 bits
Compression mode : Lossy
Stream size : 561 MiB (8%)
Language : English
Default : No
Forced : No
Text #1
ID : 5
Format : UTF-8
Codec ID : S_TEXT/UTF8
Codec ID/Info : UTF-8 Plain Text
Title : forced
Language : Russian
Default : Yes
Forced : No
Text #2
ID : 6
Format : UTF-8
Codec ID : S_TEXT/UTF8
Codec ID/Info : UTF-8 Plain Text
Title : full
Language : Russian
Default : No
Forced : No
Text #3
ID : 7
Format : UTF-8
Codec ID : S_TEXT/UTF8
Codec ID/Info : UTF-8 Plain Text
Title : forced
Language : Ukrainian
Default : No
Forced : No
Text #4
ID : 8
Format : UTF-8
Codec ID : S_TEXT/UTF8
Codec ID/Info : UTF-8 Plain Text
Language : English
Default : No
Forced : No
Menu
00:00:00.000 : en:Chapter 01
00:09:44.292 : en:Chapter 02
00:18:27.523 : en:Chapter 03
00:31:22.130 : en:Chapter 04
00:41:49.506 : en:Chapter 05
00:51:58.782 : en:Chapter 06
00:59:19.889 : en:Chapter 07
01:09:17.778 : en:Chapter 08
01:19:53.955 : en:Chapter 09
01:28:47.905 : en:Chapter 10
01:39:44.269 : en:Chapter 11
01:52:18.732 : en:Chapter 12
01:55:14.407 : en:Chapter 13
02:02:35.765 : en:Chapter 14

Скриншоты

Показать сообщения:    

Текущее время: 19-Окт 15:34

Часовой пояс: UTC - 1


Вы не можете начинать темы
Вы не можете отвечать на сообщения
Вы не можете редактировать свои сообщения
Вы не можете удалять свои сообщения
Вы не можете голосовать в опросах
Вы не можете прикреплять файлы к сообщениям
Вы не можете скачивать файлы

!ВНИМАНИЕ!
Сайт не предоставляет электронные версии произведений, а занимается лишь коллекционированием и каталогизацией ссылок, присылаемых и публикуемых на форуме нашими читателями. Если вы являетесь правообладателем какого-либо представленного материала и не желаете, чтобы ссылка на него находилась в нашем каталоге, свяжитесь с нами, и мы незамедлительно удалим ее. Файлы для обмена на трекере предоставлены пользователями сайта, и администрация не несет ответственности за их содержание. Просьба не заливать файлы, защищенные авторскими правами, а также файлы нелегального содержания!