Ивановский Торрент трекер
Яндекс.Погода
 

[Цитировать]
HUNTER

Черепашка Герой / Turtle Hero / Byeoljubu Hero -Страна: Южная Корея-Жанр: Детский, Приключения, Фэнтези-Продолжительность: 01:29:15-Год выпуска: 2001-Перевод: Профессиональный (многоголосый, закадровый)-Русские субтитры: нет-Режиссёры: Дуг-Хо Ким ( Deok-ho Kim )- Мультфильм о приключениях черепашки по имени Герой. Герой живёт в подводном королевстве и мечтает стать великим воином как его отец генерал Тегук и покорить сердце принцессы Лейлы. И вот однажды злой брат короля Имоген решает захватить власть в подводном королевстве и избавится от короля. Он подсылает морских разбойников напасть на королевство, но его план проваливается и тогда Имоген решает отравить короля у которого и так проблемы с сердцем. И вот придворный лекарь сообщает королю, что лекарство от его болезни находится на суше и это кроличий мех, но никто не может его добыть. И Герой чтобы оправдать своё имя и завоевать сердце принцессы Лейлы решает выйти на сушу и привести кролика в подводный мир. Вооружившись фамильным мечом наш герой отправляется на задание. В своём путешествии Герой переживает множество приключений, находит новых друзей и знакомится с крольчихой Эми, с которой он крепко подружился и которую он должен доставить во дворец. С камнем на душе Герой всё же заманивает Эми во дворец, где её ждут как лекарство. Но Герой не может допустить чтобы его подругу убили, и наши друзья находят выход из сложившейся ситуации и предлагают королю добыть для него чудо-плод который и должен его исцелить. В конце концов всё кончается хорошо и наши герои находят нужное лекарство и король выздоравливает. СкриншотыСкриншот меню- -Ссылка на альтернативные раздачи--Качество: VHS-Rip-Формат: DVD-Video-Видео: Кодек:MPEG-2 (PAL), Разрешение: 720х576, Соотношение сторон: 4:3, Частота кадров: 25,000, Битрейт : 4479 Кбит/сек-Аудио: [Русский, Профессиональный]Кодек:AC-3, Частота:48,0 Кгц, Каналы:2 (L,R), Битрейт:256(kbps)-Субтитры: отсутствуют-Подробные технические данные
MediaInfo
Общее
Полное имя : E:\Папка для раздач\Черепашка Герой ( Turtle Hero )\VTS_01_1.VOB
Формат : MPEG-PS
Размер файла : 918 Мбайт
Продолжительность : 26 м.
Режим общего битрейта : Переменный
Общий поток : 4821 Кбит/сек
Видео
Идентификатор : 224 (0xE0)
Формат : MPEG Video
Версия формата : Version 2
Профиль формата : Main@Main
Параметр BVOP формата : Да
Параметр матрицы формата : Выборочная
Параметр GOP формата : M=3, N=12
Продолжительность : 26 м.
Вид битрейта : Переменный
Битрейт : 4469 Кбит/сек
Максимальный битрейт : 9200 Кбит/сек
Ширина : 720 пикселей
Высота : 576 пикселей
Соотношение сторон : 4:3
Частота кадров : 25,000 кадров/сек
Стандарт вещания : PAL
Цветовое пространство : YUV
Субдискретизация насыщенности : 4:2:0
Битовая глубина : 8 бит
Тип развёртки : Чересстрочная
Порядок развёртки : Верхнее поле первое
Метод сжатия : С потерями
Бит/(Пиксели*Кадры) : 0.431
Временной код первого кадра : 00:00:00:00
Оригинал временного кода : Group of pictures header
Размер потока : 851 Мбайт (93%)
Аудио
Идентификатор : 189 (0xBD)-128 (0x80)
Формат : AC-3
Формат/Информация : Audio Coding 3
Расширение режима : CM (complete main)
Параметр Endianness формата : Big
Режим смешивания : DVD-Video
Продолжительность : 26 м.
Вид битрейта : Постоянный
Битрейт : 256 Кбит/сек
Каналы : 2 канала
Расположение каналов : Front: L R
Частота : 48,0 КГц
Битовая глубина : 16 бит
Метод сжатия : С потерями
Задержка видео : -32 мс.
Размер потока : 48,7 Мбайт (5%)
Меню
DVD Info
Title: Cartoons 80 - 90"
Size: 3.35 Gb ( 3 515 024 KBytes ) - DVD-5
Enabled regions: 1, 2, 3, 4, 5, 6
VTS_01 :
Play Length: 01:33:28
Video: PAL 4:3 (720x576) VBR
Audio:
Not specified (Dolby AC3, 2 ch)
Menu Video:
PAL 4:3 (720x576) VBR
Menu Subtitles:
Not specified
Menu Japanese Language Unit :
Root Menu
Subpicture Menu
Audio Menu
- -Мои Раздачи-


Показать сообщения:    

Текущее время: 14-Дек 00:46

Часовой пояс: UTC ± 0


Вы не можете начинать темы
Вы не можете отвечать на сообщения
Вы не можете редактировать свои сообщения
Вы не можете удалять свои сообщения
Вы не можете голосовать в опросах
Вы не можете прикреплять файлы к сообщениям
Вы не можете скачивать файлы

!ВНИМАНИЕ!
Сайт не предоставляет электронные версии произведений, а занимается лишь коллекционированием и каталогизацией ссылок, присылаемых и публикуемых на форуме нашими читателями. Если вы являетесь правообладателем какого-либо представленного материала и не желаете, чтобы ссылка на него находилась в нашем каталоге, свяжитесь с нами, и мы незамедлительно удалим ее. Файлы для обмена на трекере предоставлены пользователями сайта, и администрация не несет ответственности за их содержание. Просьба не заливать файлы, защищенные авторскими правами, а также файлы нелегального содержания!