Важное объявление!
У Нас Все раздачи мультитрекерные, при нуле пиров в релизах, можете смело вставать на закачку!
 
Автор Сообщение

HUNTER

Стаж:
4 года 7 месяцев
Сообщений:
61487

Репутация: 101

[+] [-]
Вне форума [Профиль] [ЛС]

Чем дальше в лес / Into the Woods
Страна: США
Студия: Walt Disney Pictures, Lucamar Productions, Marc Platt Productions
Жанр: мюзикл, фэнтези, комедия, семейный
Год выпуска: 2014
Продолжительность: 02:04:43
Перевод: Профессиональный (дублированный) Blu-ray EUR
Cубтитры: русские (forced, full), английские (full, SDH, Commentary)
Оригинальная аудиодорожка: английский
Режиссер: Роб Маршалл / Rob Marshall
В ролях: Мэрил Стрип, Эмили Блант, Джеймс Корден, Анна Кендрик, Крис Пайн, Джонни Депп, Дэниэл Хаттлстоун, Кристин Барански, Тэмми Бланчард, Люси Панч
Описание: Золушка мечтает попасть на бал, Пекарь, когда-то проклятый Ведьмой, и его Жена горюют о том, что у них нет ребенка, Джек хочет, чтобы его корова Беляночка наконец-то дала молоко, его Мать мечтает быть богатой, а Красной Шапочке очень нужен каравай хлеба — гостинец для Бабушки, которая живет в лесу… и, может быть, немного сластей для себя лично.
Наконец, Ведьма, живущая по соседству с Пекарем, мечтает вернуть себе молодость и красоту, которые она утратила по несчастному стечению обстоятельств. Для этого она предлагает Пекарю в обмен на снятие проклятия помочь ей и добыть необходимые составляющие для волшебного напитка: корову, белую, как молоко, плащ, красный как кровь, прядь волос, желтых, как кукуруза, и золотые туфельки…


Тип релиза: BDRip 1080p [SbR]
Контейнер: MKV
Видео: AVC, 1920x804, 12864Kbps, 23.976 fps
Аудио 1: Russian: 48 kHz, AC3, 3/2 (L,C,R,l,r) + LFE ch, ~640.00 kbps avg |BD EUR|
Аудио 2: English: 48 kHz, DTS, 3/2 (L,C,R,l,r) + LFE ch, ~1536.00 kbps avg |Original|
Аудио 3: English: 48 kHz, AC3, 2/0 (L,R) ch, ~192.00 kbps avg |Commentary Director/producer Rob Marshall and producer John DeLuca|
Чаптеры: есть

x264 log

x264 [info]: frame I:1158 Avg QP:12.58 size:272742
x264 [info]: frame P:37928 Avg QP:13.78 size:120319
x264 [info]: frame B:140388 Avg QP:16.13 size: 49722
x264 [info]: consecutive B-frames: 1.6% 2.0% 8.7% 15.3% 15.5% 52.6% 3.5% 0.5% 0.5%
x264 [info]: kb/s:12674.72

MediaInfo

General
Unique ID : 206953217661363795098053188057477576533 (0x9BB1BD69F6C2F834B56CD162AA667755)
Complete name : D:\Into.the.Woods.2014.1080p.BluRay.DTS.x264-Talian-.mkv
Format : Matroska
Format version : Version 2
File size : 13.1 GiB
Duration : 2h 4mn
Overall bit rate : 15.0 Mbps
Movie name : Into the Woods-Talian-
Encoded date : UTC 2015-04-27 13:11:39
Writing application : mkvmerge v5.7.0 ('The Whirlwind') built on Jul 8 2012 20:08:51
Writing library : libebml v1.2.3 + libmatroska v1.3.0
Attachment : Yes / Yes
Video
ID : 1
Format : AVC
Format/Info : Advanced Video Codec
Format profile : High@L4.1
Format settings, CABAC : Yes
Format settings, ReFrames : 5 frames
Codec ID : V_MPEG4/ISO/AVC
Duration : 2h 4mn
Bit rate : 12.4 Mbps
Width : 1 920 pixels
Height : 804 pixels
Display aspect ratio : 2.40:1
Frame rate : 23.976 fps
Color space : YUV
Chroma subsampling : 4:2:0
Bit depth : 8 bits
Scan type : Progressive
Bits/(Pixel*Frame) : 0.334
Stream size : 10.8 GiB (82%)
Title : SbR
Writing library : x264 core 146 r2538kMod 121396c
Encoding settings : cabac=1 / ref=5 / deblock=1:-2:-2 / analyse=0x3:0x133 / me=umh / subme=11 / psy=1 / fade_compensate=0.00 / psy_rd=1.00:0.00 / mixed_ref=1 / me_range=32 / chroma_me=1 / trellis=2 / 8x8dct=1 / cqm=0 / deadzone=21,11 / fast_pskip=1 / chroma_qp_offset=-2 / threads=12 / lookahead_threads=2 / sliced_threads=0 / nr=0 / decimate=1 / interlaced=0 / bluray_compat=0 / constrained_intra=0 / fgo=0 / bframes=8 / b_pyramid=2 / b_adapt=2 / b_bias=0 / direct=1 / weightb=1 / open_gop=0 / weightp=2 / keyint=250 / keyint_min=23 / scenecut=40 / intra_refresh=0 / rc_lookahead=60 / rc=crf / mbtree=0 / crf=15.8000 / qcomp=0.70 / qpmin=0 / qpmax=69 / qpstep=4 / vbv_maxrate=62500 / vbv_bufsize=78125 / crf_max=0.0 / nal_hrd=none / filler=0 / ip_ratio=1.40 / pb_ratio=1.30 / aq=1:0.80
Language : English
Default : Yes
Forced : No
Color primaries : BT.709-5, BT.1361, IEC 61966-2-4, SMPTE RP177
Transfer characteristics : BT.709-5, BT.1361
Matrix coefficients : BT.709-5, BT.1361, IEC 61966-2-4 709, SMPTE RP177
Audio #1
ID : 2
Format : AC-3
Format/Info : Audio Coding 3
Mode extension : CM (complete main)
Format settings, Endianness : Big
Codec ID : A_AC3
Duration : 2h 4mn
Bit rate mode : Constant
Bit rate : 640 Kbps
Channel(s) : 6 channels
Channel positions : Front: L C R, Side: L R, LFE
Sampling rate : 48.0 KHz
Bit depth : 16 bits
Compression mode : Lossy
Stream size : 571 MiB (4%)
Title : Blu-ray- EUR
Language : Russian
Default : Yes
Forced : No
Audio #2
ID : 3
Format : DTS
Format/Info : Digital Theater Systems
Codec ID : A_DTS
Duration : 2h 4mn
Bit rate mode : Constant
Bit rate : 1 510 Kbps
Channel(s) : 6 channels
Channel positions : Front: L C R, Side: L R, LFE
Sampling rate : 48.0 KHz
Bit depth : 24 bits
Compression mode : Lossy
Stream size : 1.32 GiB (10%)
Title : Original
Language : English
Default : No
Forced : No
Audio #3
ID : 4
Format : AC-3
Format/Info : Audio Coding 3
Mode extension : CM (complete main)
Format settings, Endianness : Big
Codec ID : A_AC3
Duration : 2h 4mn
Bit rate mode : Constant
Bit rate : 192 Kbps
Channel(s) : 2 channels
Channel positions : Front: L R
Sampling rate : 48.0 KHz
Bit depth : 16 bits
Compression mode : Lossy
Stream size : 171 MiB (1%)
Title : Commentary- Director/producer Rob Marshall and producer John DeLuca
Language : English
Default : No
Forced : No
Text #1
ID : 5
Format : UTF-8
Codec ID : S_TEXT/UTF8
Codec ID/Info : UTF-8 Plain Text
Title : Sub-forced
Language : Russian
Default : Yes
Forced : No
Text #2
ID : 6
Format : UTF-8
Codec ID : S_TEXT/UTF8
Codec ID/Info : UTF-8 Plain Text
Title : Sub-full
Language : Russian
Default : No
Forced : No
Text #3
ID : 7
Format : UTF-8
Codec ID : S_TEXT/UTF8
Codec ID/Info : UTF-8 Plain Text
Title : Sub-full
Language : English
Default : No
Forced : No
Text #4
ID : 8
Format : UTF-8
Codec ID : S_TEXT/UTF8
Codec ID/Info : UTF-8 Plain Text
Title : Sub-SDH
Language : English
Default : No
Forced : No
Text #5
ID : 9
Format : UTF-8
Codec ID : S_TEXT/UTF8
Codec ID/Info : UTF-8 Plain Text
Title : Sub-Commentary
Language : English
Default : No
Forced : No
Menu
00:00:00.000 : en:Prologue: "Into the Woods"
00:16:24.274 : en:"Cinderella at the Grave"
00:18:02.164 : en:"Hello, Little Girl"
00:21:30.998 : en:Aiming to Lift the Spell
00:26:37.846 : en:Rapunzel
00:28:28.415 : en:Granny's Cottage
00:30:08.765 : en:"I Know Things Now"
00:32:50.969 : en:The Beanstalk
00:33:31.884 : en:"A Very Nice Prince"
00:37:18.027 : en:"Giants in the Sky"
00:40:44.984 : en:Baker and His Wife
00:42:27.127 : en:"Agony"
00:46:13.604 : en:The Forbidden Tower
00:48:53.180 : en:"It Takes Two"
00:54:39.109 : en:"Stay with Me"
00:57:50.925 : en:Chopping Down the Beanstalk
01:00:02.807 : en:"On the Steps of the Palace"
01:03:33.976 : en:Searching for Cinderella
01:08:32.858 : en:A Tear
01:10:14.335 : en:Back to Life
01:14:47.524 : en:Nothing to Fear
01:21:45.567 : en:"Witch's Lament"
01:24:00.827 : en:"Any Moment"
01:29:15.266 : en:"Moments in the Woods"
01:33:29.437 : en:"Your Fault"
01:36:32.995 : en:"Last Midnight"
01:40:53.422 : en:Do Better
01:43:59.149 : en:The Faraway Prince
01:45:49.885 : en:"No One Is Alone"
01:49:38.947 : en:The Giant Attack
01:53:44.984 : en:You Are Not Alone/"Children Will Listen"
01:57:23.828 : en:Finale/Credits

Скриншоты

Source vs Encode




_________________
Показать сообщения:    

Текущее время: Сегодня 06:14

Часовой пояс: GMT



Вы не можете начинать темы
Вы не можете отвечать на сообщения
Вы не можете редактировать свои сообщения
Вы не можете удалять свои сообщения
Вы не можете голосовать в опросах
Вы не можете прикреплять файлы к сообщениям
Вы не можете скачивать файлы
Наши партнеры: интернет магазин Ивановского трикотажа textilla.ru