Ивановский Торрент трекер
Яндекс.Погода
 

[Цитировать]
HUNTER


Чемпионки «И спорт, и слёзы, и любовь»-
Год выпуска: 2012
Страна: Россия
Жанр: драма
Продолжительность: 00:46:55
Перевод: Оригинал
Субтитры: отсутствуют
Режиссер: Павел Дроздов
В ролях: Лилия Хасанова (Саша), Софья Райзман (Наташа), Алена Миронова (Юля), Полина Пахомова (Милена), Лариса Маркина , Марина Куделинская (Брусилова), Дмитрий Фрид (Антон), Татьяна Храмова (Олеся), Юлия Дробот (Елена), Родион Галюченко (Артем)
Описание: Сюжет вращается вокруг трех девушек, которые занимаются художественной гимнастикой на площадке клуба «Комета». Однажды к компании Юли, Саши и Наташи присоединяется талантливая спортсменка по имени Милена. Тренер заметил ее среди множества учениц спортивных школ, и предложил заниматься под его руководством. Милена затмила своим появлением Юлю, звезду клуба. Но Юля не признает конкуренции, и готова пойти на любые меры, чтобы убрать с дороги потенциальную чемпионку.--Качество: SATRip
Формат: AVI
Видео кодек: XviD
Аудио кодеk: MP3
Видео: 720x400 (16:9), 25.000 fps, XviD, 1 501 Kbps
Аудио: Аудио #1: MP3, 128 Kbps, 48.0 KHz, 2 ch

Рейтинг

Рейтинг:

МедиаИнфо

Код: copyText_writeLink('this.parentNode.parentNode.nextSibling.nextSibling'); General
Complete name : Chempionki.01.2012.SATRip.avi
Format : AVI
Format/Info : Audio Video Interleave
File size : 550 MiB
Duration : 46mn 55s
Overall bit rate : 1 639 Kbps
Writing library : VirtualDub build 32706/release
Video
ID : 0
Format : MPEG-4 Visual
Format profile : Advanced Simple@L5
Format settings, BVOP : Yes
Format settings, QPel : No
Format settings, GMC : No warppoints
Format settings, Matrix : Default (MPEG)
Codec ID : XVID
Codec ID/Hint : XviD
Duration : 46mn 55s
Bit rate : 1 501 Kbps
Width : 720 pixels
Height : 400 pixels
Display aspect ratio : 16:9
Frame rate : 25.000 fps
Color space : YUV
Chroma subsampling : 4:2:0
Bit depth : 8 bits
Scan type : Progressive
Bits/(Pixel*Frame) : 0.208
Stream size : 504 MiB (92%)
Writing library : XviD 1.2.1 (UTC 2008-12-04)
Audio
ID : 1
Format : MPEG Audio
Format version : Version 1
Format profile : Layer 3
Mode : Joint stereo
Mode extension : MS Stereo
Codec ID : 55
Codec ID/Hint : MP3
Duration : 46mn 55s
Bit rate mode : Constant
Bit rate : 128 Kbps
Channel(s) : 2 channels
Sampling rate : 48.0 KHz
Stream size : 43.0 MiB (8%)
Alignment : Split accross interleaves
Interleave, duration : 40 ms (1.00 video frame)
Interleave, preload duration : 500 ms

Скриншоты












Показать сообщения:    

Текущее время: 16-Дек 11:17

Часовой пояс: UTC ± 0


Вы не можете начинать темы
Вы не можете отвечать на сообщения
Вы не можете редактировать свои сообщения
Вы не можете удалять свои сообщения
Вы не можете голосовать в опросах
Вы не можете прикреплять файлы к сообщениям
Вы не можете скачивать файлы

!ВНИМАНИЕ!
Сайт не предоставляет электронные версии произведений, а занимается лишь коллекционированием и каталогизацией ссылок, присылаемых и публикуемых на форуме нашими читателями. Если вы являетесь правообладателем какого-либо представленного материала и не желаете, чтобы ссылка на него находилась в нашем каталоге, свяжитесь с нами, и мы незамедлительно удалим ее. Файлы для обмена на трекере предоставлены пользователями сайта, и администрация не несет ответственности за их содержание. Просьба не заливать файлы, защищенные авторскими правами, а также файлы нелегального содержания!