Челюсти 3 в 3Д / Jaws 3-D in 3D (Джо Элвс / Joe Alves) [1983, Ужасы, BDrip] MVO, Half OverUnder / Вертикальная анаморфная стереопара :: Ивановский Торрент трекер
Важное объявление!
У Нас Все раздачи мультитрекерные, при нуле пиров в релизах, можете смело вставать на закачку!
 
Автор Сообщение

HUNTER

Стаж:
4 года 11 месяцев
Сообщений:
66047

Репутация: 101

[+] [-]
Вне форума [Профиль] [ЛС]

Челюсти 3
Jaws 3-D
-
Год выпуска: 1983
Страна: США (Universal, Alan Landsburg Productions)
Жанр: Ужасы
Продолжительность: 01:38:21
Перевод: Профессиональный многоголосый закадровый (2 шт)
Режиссер: Джо Элвс / Joe Alves-Роли исполняли:

Mike Brody - Деннис Куэйд
Dr. Kathryn «Kay» Morgan - Бесс Армстронг
Philip FitzRoyce - Саймон МакКоркиндейл
Calvin Bouchard - Луис Госсет мл.
Sean Brody - Джон Путч
Kelly Ann Bukowski - Лиа Томпсон
Jack Tate - П.Х. Мориарти
Dan - Дэн Бласко
Liz - Лиз Моррис
Ethel - Лиза Морер
Shelby Overman - Гарри Грант
-Описание #1: Руководство крупнейшего во Флориде океанического парка развлечений после появления в прибрежных водах большой белой акулы решает поймать её для дополнительного привлечения туристов.
Спустя некоторое время работники парка Майк Броди и Кетлин Морган понимают, что пойманная ими акула — детёныш, а в акваторию проникла её огромная мамаша…
-Описание #2: На восточном побережье миллионер Кевин Бушар устроил грандиозный морской парк развлечений с воднолыжными акробатами, "подводным царством", экскурсиями на катерах и т.д. В это же время сотрудники морского исследовательского центра, расположенного неподалеку, обнаруживают тело одного из ныряльщиков, погибшего от зубов гигантской белой акулы. Трудно поверить, но у этого монстра к ученым свой счет, - акула мстит за своего погибшего детеныша...-Доп. инфо: 3Д глубокое.

Знаете ли вы, что...

  • Фильм снимался в формате 3D двумя типами камер. Работа шла очень тяжело, многие эпизоды пришлось переснимать. По-видимому, с этим связано низкое качество картинки в сценах в закрытых помещениях (в баре, в комнате управления "Подводным миром"), а также то, что подводные сцены созданы с применением убогого фотомонтажа.
  • Низкое качество изображения не могло пройти незамеченным - данный фильм номинировался на премию "Золотая малина" в категории "Самая плохая картинка". Также Челюсти 3 вошли в номинации "худший сценарий", "худший режиссер", "худший актер второго плана" (Л. Госсет младший), "худшие новички" (парочка дельфинов).
  • В фильме появляется самая большая акула во всей саге: 10 метров, в то время, как в оригинале она была всего 7,6 метров в длину.
  • Это дебютный фильм актрисы Лии Томпсон.
  • Изначально картины была выпущена специально для кинотеатров с объемным стереоскопическим экраном, отчего одно из ее названий — «Челюсти: Третье измерение» (Jaws 3-D).
  • Изначально было решено сделать пародийный фильм под названием «Челюсти — 3, люди — 0» (Jaws 3 People 0), т. е. в фильме не было бы ни одной жертвы, да и картина бы не входила в цикл, но затем планы изменились.
  • Фильм снимался в океанариуме в Орландо (штат Флорида).
  • Съемки фильма проходили с 15 июня 1982 года по 22 января 1983 года, а общий срок, в течение которого создавалась картина — с 1 марта 1982 по 29 мая 1983 года.
  • Режиссер фильма Джо Элвс принимал участие в создании фильмов «Челюсти» и «Челюсти 2» в качестве второго ассистента директора.
  • Продюсеры первых фильмов Дэвид Браун и Ричард Занук хотели использовать сюжет про то, как студия снимает первый фильм. В начале фильма автора романа Питера Бенчли должна была съедать акула в собственном бассейне, появляться обнажённая актриса Бо Дерек и инопланетяне в костюмах акулы. Но эта идея не понравилась Стивену Спилбергу, который пригрозил покинуть студию «Universal». В итоге от проекта пришлось отказаться, а обиженные Браун и Занук сами ушли со студии.
    Осторожно! Следующий факт содержит спойлер.
В 1982 году студия «Universal» выиграла судебный процесс по обвинению в плагиате у картины «Последняя акула» (1981). В итоге фильм Энцо Кастеллари был изъят из проката. А создатели этого продолжения сами использовали идеи того фильма. В частности, длина акулы была значительно увеличена, акула стала издавать громкие звуки, и, наконец, финальное уничтожение акулы взрывом также пришло из фильма Кастеллари.

Ошибка в фильме

В фильме акула умеет плавать назад и издает звуки. И первое, и второе физически невозможно.
Премьера (мир): 22 июля 1983
Релиз на DVD (Россия): 14 октября 2008
Бюджет: $20 500 000
Кассовые сборы: $87 987 055

[img]https://rating.kinopoisk.ru/14928.gif[/img]. .
-Качество: BDRip (by Ash61)
Контейнер: MKV
Формат 3D: Half OverUnder / Вертикальная анаморфная стереопара
Порядок ракурсов: левый ракурс первый-Видео: AVC / 1920х1080p / 23,976 fps / 19.1 Mbps
Аудио:
#1 - Русский / AC3 / 48 KHz / 5.1 ch / 384 Kbps (MVO - unknown)
#2 - Русский / AC3 / 48 KHz / 2 ch / 192 Kbps (MVO - СТС) (моно)
#3 - Английский / AC3 / 48 KHz / 2 ch / 448 Kbps (Original - BD 3D)
Субтитры (внешние SRT UTF-8):
#1 - English Full (BD 3D)
#2 - English SDH (BD 3D)

MediaInfo

General
Unique ID : 245169058983492796392090860211314949952 (0xB871D7DCD496F1A0A10360C6CA44FF40)
Complete name : E:\Jaws3-D(1983)3D-halfOU(Ash61)MVO\Jaws3-D(1983)3D-halfOU(Ash61)MVO.mkv
Format : Matroska
Format version : Version 2
File size : 14.1 GiB
Duration : 1h 38mn
Overall bit rate : 20.5 Mbps
Movie name : Челюсти 3 / Jaws 3-D (1983) в 3Д
Encoded date : UTC 2016-06-19 13:16:55
Writing application : mkvmerge v5.8.0 ('No Sleep / Pillow') built on Sep 2 2012 15:37:04
Writing library : libebml v1.2.3 + libmatroska v1.3.0
Video
ID : 1
Format : AVC
Format/Info : Advanced Video Codec
Format profile : High@L4.1
Format settings, CABAC : Yes
Format settings, ReFrames : 4 frames
Codec ID : V_MPEG4/ISO/AVC
Duration : 1h 38mn
Bit rate : 19.1 Mbps
Width : 1 920 pixels
Height : 1 080 pixels
Display aspect ratio : 16:9
Frame rate mode : Constant
Frame rate : 23.976 fps
Color space : YUV
Chroma subsampling : 4:2:0
Bit depth : 8 bits
Scan type : Progressive
Bits/(Pixel*Frame) : 0.384
Stream size : 13.1 GiB (93%)
Title : BDRip by Ash61
Writing library : x264 core 146 r2538 121396c
Encoding settings : cabac=1 / ref=4 / deblock=1:-3:-3 / analyse=0x3:0x113 / me=umh / subme=10 / psy=1 / psy_rd=1.00:0.00 / mixed_ref=1 / me_range=32 / chroma_me=1 / trellis=2 / 8x8dct=1 / cqm=0 / deadzone=21,11 / fast_pskip=1 / chroma_qp_offset=-2 / threads=12 / lookahead_threads=3 / sliced_threads=0 / nr=0 / decimate=1 / interlaced=0 / bluray_compat=0 / constrained_intra=0 / bframes=12 / b_pyramid=2 / b_adapt=2 / b_bias=0 / direct=3 / weightb=1 / open_gop=0 / weightp=2 / keyint=250 / keyint_min=23 / scenecut=40 / intra_refresh=0 / rc_lookahead=60 / rc=crf / mbtree=1 / crf=16.5 / qcomp=0.70 / qpmin=0 / qpmax=69 / qpstep=4 / vbv_maxrate=40000 / vbv_bufsize=30000 / crf_max=0.0 / nal_hrd=none / filler=0 / frame-packing=4 / ip_ratio=1.40 / aq=1:0.70
Language : English
Default : Yes
Forced : No
Audio #1
ID : 2
Format : AC-3
Format/Info : Audio Coding 3
Mode extension : CM (complete main)
Format settings, Endianness : Big
Codec ID : A_AC3
Duration : 1h 38mn
Bit rate mode : Constant
Bit rate : 384 Kbps
Channel(s) : 6 channels
Channel positions : Front: L C R, Side: L R, LFE
Sampling rate : 48.0 KHz
Bit depth : 16 bits
Compression mode : Lossy
Stream size : 270 MiB (2%)
Title : Многоголосый закадровый (неизвестный)
Language : Russian
Default : Yes
Forced : No
Audio #2
ID : 3
Format : AC-3
Format/Info : Audio Coding 3
Mode extension : CM (complete main)
Format settings, Endianness : Big
Codec ID : A_AC3
Duration : 1h 38mn
Bit rate mode : Constant
Bit rate : 192 Kbps
Channel(s) : 2 channels
Channel positions : Front: L R
Sampling rate : 48.0 KHz
Bit depth : 16 bits
Compression mode : Lossy
Stream size : 135 MiB (1%)
Title : Многоголосый закадровый - СТС
Language : Russian
Default : No
Forced : No
Audio #3
ID : 4
Format : AC-3
Format/Info : Audio Coding 3
Mode extension : CM (complete main)
Format settings, Endianness : Big
Codec ID : A_AC3
Duration : 1h 38mn
Bit rate mode : Constant
Bit rate : 448 Kbps
Channel(s) : 2 channels
Channel positions : Front: L R
Sampling rate : 48.0 KHz
Bit depth : 16 bits
Compression mode : Lossy
Stream size : 315 MiB (2%)
Title : Original - BD 3D
Language : English
Default : No
Forced : No
Menu
00:00:00.000 : :1
00:04:41.490 : :2
00:12:55.441 : :3
00:17:37.640 : :4
00:21:50.017 : :5
00:27:01.328 : :6
00:32:08.176 : :7
00:37:56.191 : :8
00:43:36.072 : :9
00:48:50.427 : :10
00:51:07.398 : :11
00:58:03.522 : :12
01:01:13.962 : :13
01:04:21.941 : :14
01:10:05.326 : :15
01:15:27.565 : :16
01:20:13.100 : :17
01:25:02.472 : :18
01:30:23.501 : :19
01:34:24.117 : :20

Для оценки 3Д - Анимированные скрины





















_________________
Показать сообщения:    

Текущее время: Сегодня 10:32

Часовой пояс: GMT



Вы не можете начинать темы
Вы не можете отвечать на сообщения
Вы не можете редактировать свои сообщения
Вы не можете удалять свои сообщения
Вы не можете голосовать в опросах
Вы не можете прикреплять файлы к сообщениям
Вы не можете скачивать файлы