Ивановский Торрент трекер
Яндекс.Погода
 

[Цитировать]
HUNTER

Человечество. Эволюция продолжается / The Mankind. Evolution lasts
Год выпуска: 2011
Страна: Великобритания BBC
Жанр: Документальный
Продолжительность: 00:51:03
Перевод: Профессиональный (одноголосый)
Описание: Элис Робертс пытается найти ответ на один из главных вопросов нашей современности - продолжается ли эволюция человека. Нет сомнения в том, что мы - продукт длительной эволюции. Вопрос в том, удалось ли нам, используя достижения современных технологий и медицины, избежать последствий борьбы за выживание. Элис знакомится с последними генетическими исследованиями, изучает останки древнейших людей, исследует, как людям удается приспособиться к тяжелейшим климатическим условиям для того, чтобы понять, продолжается ли эволюция и куда это может нас привести.
Качество: DVB
Формат: MPEG
Видео кодек: MPEG2
Аудио кодек: MPEG1 Layer 2
Видео: MPEG2 Video 720x576 (4:3) 25.00fps ~2 231 Kbps
Аудио: MPEG Audio 48000Hz 2 channels 192 Кбит/сек

MediaInfo

H:\02__НАУКА 2.0\222_МПЕГ\Человечество. Эволюция продолжается_DVB by kuzmichm2196 .mpg
General
Complete name : H:\02__НАУКА 2.0\222_МПЕГ\Человечество. Эволюция продолжается_DVB by kuzmichm2196 .mpg
Format : MPEG-PS
File size : 903 MiB
Duration : 51mn 3s
Overall bit rate : 2 472 Kbps
Writing library : (c) 1998-2008 Womble Multimedia, Inc. / MPEG Video Wizard (08/2008) / Aug 25 2008
Video #224
ID : 224 (0xE0)
Format : MPEG Video
Format version : Version 2
Format profile : Main@Main
Format settings, BVOP : Yes
Format settings, Matrix : Custom
Format settings, GOP : M=3, N=24
Duration : 51mn 3s
Bit rate mode : Variable
Bit rate : 2 231 Kbps
Nominal bit rate : 15.0 Mbps
Width : 720 pixels
Height : 576 pixels
Display aspect ratio : 4:3
Frame rate : 25.000 fps
Standard : PAL
Color space : YUV
Chroma subsampling : 4:2:0
Bit depth : 8 bits
Scan type : Interlaced
Scan order : Top Field First
Compression mode : Lossy
Bits/(Pixel*Frame) : 0.215
Stream size : 815 MiB (90%)
Writing library : (c) 1998-2008 Womble Multimedia, Inc. / MPEG Video Wizard (08/2008) / Aug 25 2008
Audio #192
ID : 192 (0xC0)
Format : MPEG Audio
Format version : Version 1
Format profile : Layer 2
Duration : 51mn 3s
Bit rate mode : Constant
Bit rate : 192 Kbps
Channel(s) : 2 channels
Sampling rate : 48.0 KHz
Compression mode : Lossy
Delay relative to video : -40ms
Stream size : 70.1 MiB (8%)

Скриншоты

Показать сообщения:    

Текущее время: 20-Сен 04:38

Часовой пояс: UTC - 1


Вы не можете начинать темы
Вы не можете отвечать на сообщения
Вы не можете редактировать свои сообщения
Вы не можете удалять свои сообщения
Вы не можете голосовать в опросах
Вы не можете прикреплять файлы к сообщениям
Вы не можете скачивать файлы

!ВНИМАНИЕ!
Сайт не предоставляет электронные версии произведений, а занимается лишь коллекционированием и каталогизацией ссылок, присылаемых и публикуемых на форуме нашими читателями. Если вы являетесь правообладателем какого-либо представленного материала и не желаете, чтобы ссылка на него находилась в нашем каталоге, свяжитесь с нами, и мы незамедлительно удалим ее. Файлы для обмена на трекере предоставлены пользователями сайта, и администрация не несет ответственности за их содержание. Просьба не заливать файлы, защищенные авторскими правами, а также файлы нелегального содержания!