Ивановский Торрент трекер
Яндекс.Погода
 

[Цитировать]
HUNTER

Человечество из космоса / Mankind from Space
Дата/Год выпуска: 2015
Страна: Канада, Великобритания
Жанр: Документальный
Продолжительность: 01:27:58
Перевод: Одноголосый закадровый
Режиссер: Дункан Копп / Duncan Copp
Доп. инфо о переводе: Студия Велес
Русские субтитры: нет
Телеканал: National Geographic
Описание: Говорят, что человечество из космоса. Мы сейчас живем в поразительно сложном, взаимосвязанном мире. Он сформирован уникальными новшествами, введенными за тысячи лет. Изобретения помогли нам образовать запутанные паутины сетей, подарив успешную жизнь. Сейчас уже можно проследить незримые связи, соединяющие нас. Это история того, как наша изобретательность создала современный мир, и как нам с её помощью защитить своё будущее.
Сэмпл: http://multi-up.com/1045009
качество: SATRip
формат: AVI
Видео: XviD, 704x400, ~1573 Кбит/сек
Аудио: AC3 2.0, 192 Кбит/сек, 48,0 КГц

MediaInfo

ОбщееПолное имя : /mnt/rtorrent/Downloads/Video/Shows/Mankind from Space/Человечество из космоса.2015.SATRip.aviФормат : AVIФормат/Информация : Audio Video InterleaveРазмер файла : 1,09 ГбайтПродолжительность : 1 ч. 27 м.Общий поток : 1776 Кбит/секПрограмма кодирования : VirtualDubMod 1.5.10.3 | www.virtualdub-fr.org || (build 2550/release)Библиотека кодирования : VirtualDubMod build 2550/release
ВидеоИдентификатор : 0Формат : MPEG-4 VisualПрофиль формата : Advanced Simple@L5Параметр BVOP формата : 2Параметр QPel формата : НетПараметр GMC формата : Без точки переходаПараметр матрицы формата : ВыборочнаяИдентификатор кодека : XVIDИдентификатор кодека/Подсказка : XviDПродолжительность : 1 ч. 27 м.Битрейт : 1574 Кбит/секШирина : 704 пикселяВысота : 400 пикселейСоотношение сторон : 16:9Частота кадров : 25,000 кадров/секЦветовое пространство : YUVСубдискретизация насыщенности : 4:2:0Битовая глубина : 8 битТип развёртки : ПрогрессивнаяМетод сжатия : С потерямиБит/(Пиксели*Кадры) : 0.224Размер потока : 990 Мбайт (89%)Библиотека кодирования : XviD 73
АудиоИдентификатор : 1Формат : AC-3Формат/Информация : Audio Coding 3Расширение режима : CM (complete main)Параметр Endianness формата : BigИдентификатор кодека : 2000Продолжительность : 1 ч. 27 м.Вид битрейта : ПостоянныйБитрейт : 192 Кбит/секКаналы : 2 каналаРасположение каналов : Front: L RЧастота : 48,0 КГцБитовая глубина : 16 битМетод сжатия : С потерямиРазмер потока : 121 Мбайт (11%)Выравнивание : Разделение по промежуткамПродолжительность промежутка : 40 мс. (1,00 видеокадр)Время предзагрузки промежутка : 500 мс.

Скриншоты

Показать сообщения:    

Текущее время: 25-Сен 04:58

Часовой пояс: UTC - 1


Вы не можете начинать темы
Вы не можете отвечать на сообщения
Вы не можете редактировать свои сообщения
Вы не можете удалять свои сообщения
Вы не можете голосовать в опросах
Вы не можете прикреплять файлы к сообщениям
Вы не можете скачивать файлы

!ВНИМАНИЕ!
Сайт не предоставляет электронные версии произведений, а занимается лишь коллекционированием и каталогизацией ссылок, присылаемых и публикуемых на форуме нашими читателями. Если вы являетесь правообладателем какого-либо представленного материала и не желаете, чтобы ссылка на него находилась в нашем каталоге, свяжитесь с нами, и мы незамедлительно удалим ее. Файлы для обмена на трекере предоставлены пользователями сайта, и администрация не несет ответственности за их содержание. Просьба не заливать файлы, защищенные авторскими правами, а также файлы нелегального содержания!