Важное объявление!
У Нас Все раздачи мультитрекерные, при нуле пиров в релизах, можете смело вставать на закачку!
Статистика раздачи
Размер:     |    Зарегистрирован:     |    Скачан:     |   
Нет
 
     
 
 
Автор Сообщение

HUNTER

Стаж:
5 лет 1 месяц
Сообщений:
68439

Репутация: 101

[+] [-]
Вне форума [Профиль] [ЛС]

Человек – швейцарский нож / Swiss Army Man
Страна: США
Студия: Cold Iron Pictures
Жанр: фэнтези, драма, мелодрама, комедия, приключения
Год выпуска: 2016
Продолжительность: 01:37:23
Перевод: Профессиональный (дублированный) iTunes
Cубтитры: английские
Оригинальная аудиодорожка: английский
Режиссер: Дэн Кван / Dan Kwan , Дэниэл Шайнерт / Daniel Scheinert
В ролях: Пол Дано, Дэниэл Рэдклифф, Мэри Элизабет Уинстэд, Антония Риберо, Тимоти Йолих, Ричард Гросс, Марика Кастил, Энди Халл, Аарон Маршалл, Шейн Каррут
Описание: Оказавшись на необитаемом острове, Хэнк уже был готов потерять всякую надежду, но все меняется, когда на берегу он находит труп по имени Мэнни. Многофункциональность Мэнни поможет Хэнку выжить в диких условиях и заново обрести радость жизни. Вместе они отправятся в эпическое приключение, которое вернет Хэнка к девушке его мечты.
[img]https://rating.kinopoisk.ru/918087.gif[/img]
Тип релиза: BDRip 720p
Контейнер: MKV
Видео: MPEG-4 AVC, 7200 Кбит/с, 1280x534, 23,976 fps
Аудио: Rus, AC3, 384 kb/s (6 ch), 48 kHz
Аудио 2: Eng, AC3, 640 kb/s (6 ch), 48 kHz
Формат субтитров: softsub (SRT)

MediaInfo

Format : Matroska
Format version : Version 4 / Version 2
File size : 5.71 GiB
Duration : 1h 37mn
Overall bit rate : 8 391 Kbps
Movie name : Человек – швейцарский нож. (Tonik)
Encoded date : UTC 2016-09-24 14:56:26
Writing application : mkvmerge v7.1.0 ('Good Love') 64bit built on Jul 27 2014 13:06:55
Writing library : libebml v1.3.0 + libmatroska v1.4.1
_STATISTICS_WRITING_APP : mkvmerge v7.1.0 ('Good Love') 64bit built on Jul 27 2014 13:06:55
_STATISTICS_WRITING_DATE_UTC : 2016-09-24 14:56:26
_STATISTICS_TAGS : BPS DURATION NUMBER_OF_FRAMES NUMBER_OF_BYTES
DURATION : 01:33:42.095000000
NUMBER_OF_FRAMES : 1130
NUMBER_OF_BYTES : 35232
Video
ID : 1
Format : AVC
Format/Info : Advanced Video Codec
Format profile : High@L4.1
Format settings, CABAC : Yes
Format settings, ReFrames : 12 frames
Codec ID : V_MPEG4/ISO/AVC
Bit rate : 7 200 Kbps
Width : 1 280 pixels
Height : 534 pixels
Display aspect ratio : 2.40:1
Frame rate mode : Variable
Original frame rate : 23.976 fps
Color space : YUV
Chroma subsampling : 4:2:0
Bit depth : 8 bits
Scan type : Progressive
Writing library : x264 core 148 r2705 3f5ed56
Encoding settings : cabac=1 / ref=12 / deblock=1:-3:-3 / analyse=0x3:0x133 / me=tesa / subme=11 / psy=1 / psy_rd=1.00:0.00 / mixed_ref=1 / me_range=24 / chroma_me=1 / trellis=2 / 8x8dct=1 / cqm=0 / deadzone=21,11 / fast_pskip=0 / chroma_qp_offset=-2 / threads=12 / lookahead_threads=3 / sliced_threads=0 / nr=0 / decimate=1 / interlaced=0 / bluray_compat=0 / constrained_intra=0 / bframes=10 / b_pyramid=2 / b_adapt=2 / b_bias=0 / direct=3 / weightb=1 / open_gop=0 / weightp=2 / keyint=240 / keyint_min=23 / scenecut=40 / intra_refresh=0 / rc_lookahead=60 / rc=crf / mbtree=0 / crf=16.6 / qcomp=0.73 / qpmin=0 / qpmax=69 / qpstep=4 / vbv_maxrate=62500 / vbv_bufsize=78125 / crf_max=0.0 / nal_hrd=none / filler=0 / ip_ratio=1.35 / pb_ratio=1.18 / aq=1:0.80
Language : English
Default : Yes
Forced : No
Audio #1
ID : 2
Format : AC-3
Format/Info : Audio Coding 3
Mode extension : CM (complete main)
Format settings, Endianness : Big
Codec ID : A_AC3
Duration : 1h 37mn
Bit rate mode : Constant
Bit rate : 384 Kbps
Channel(s) : 6 channels
Channel positions : Front: L C R, Side: L R, LFE
Sampling rate : 48.0 KHz
Bit depth : 16 bits
Compression mode : Lossy
Stream size : 267 MiB (5%)
Title : iTunes
Language : Russian
Default : Yes
Forced : No
Audio #2
ID : 3
Format : AC-3
Format/Info : Audio Coding 3
Mode extension : CM (complete main)
Format settings, Endianness : Big
Codec ID : A_AC3
Duration : 1h 37mn
Bit rate mode : Constant
Bit rate : 640 Kbps
Channel(s) : 6 channels
Channel positions : Front: L C R, Side: L R, LFE
Sampling rate : 48.0 KHz
Bit depth : 16 bits
Compression mode : Lossy
Stream size : 446 MiB (8%)
Language : English
Default : No
Forced : No
Text
ID : 4
Format : UTF-8
Codec ID : S_TEXT/UTF8
Codec ID/Info : UTF-8 Plain Text
Language : English
Default : No
Forced : No
Menu
00:00:00.000 : en:00:00:00.000
00:08:47.902 : en:00:08:47.902
00:13:14.335 : en:00:13:14.335
00:17:42.228 : en:00:17:42.228
00:25:11.593 : en:00:25:11.593
00:32:46.256 : en:00:32:46.256
00:37:17.068 : en:00:37:17.068
00:44:39.260 : en:00:44:39.260
00:51:44.101 : en:00:51:44.101
00:57:57.224 : en:00:57:57.224
01:03:19.337 : en:01:03:19.337
01:06:17.140 : en:01:06:17.140
01:10:05.535 : en:01:10:05.535
01:16:40.679 : en:01:16:40.679
01:22:10.092 : en:01:22:10.092
01:27:31.788 : en:01:27:31.788

Скриншоты


_________________
Показать сообщения:    

Текущее время: Сегодня 02:24

Часовой пояс: GMT



Вы не можете начинать темы
Вы не можете отвечать на сообщения
Вы не можете редактировать свои сообщения
Вы не можете удалять свои сообщения
Вы не можете голосовать в опросах
Вы не можете прикреплять файлы к сообщениям
Вы не можете скачивать файлы