Ивановский Торрент трекер
Яндекс.Погода
 

[Цитировать]
HUNTER

Человек с рентгеновскими глазами / X: The Man with the X-Ray Eyes
Страна: США
Жанр: ужасы, фантастика, триллер
Год выпуска: 1963
Продолжительность: 01:19:12-Перевод: Любительский одноголосый Eraserhead
Cубтитры: русские (Eraserhead), английские
Оригинальная аудиодорожка: английский-Режиссер: Роджер Корман / Roger Corman-В ролях: Рэй Милланд, Диана Ван дер Влис, Гарольд Стоун, Джон Хойт, Дон Риклс-Описание:
Ученый, чьи исследования пытается прикрыть начальство, ставит опыт над собой. Капли, которые он закапывает в глаза, превращают его зрительные органы в рентгены, просвечивающие вещи насквозь.-Сэмпл: Скачать-Тип релиза: BDRip 720p
Контейнер: MKV-Видео: 1 280x694 (1.85:1); 4 496 Kbps; 23.976 fps; 0.211 bpp
Аудио 1: Russian; AC3; 48.0 KHz; 2ch; 192 Kbps VO Eraserhead
Аудио 2: English; FLAC; 48.0 KHz; 1ch; 554 Kbps
Аудио 3: English; AC3; 48.0 KHz; 2ch; 384 Kbps Commentary: Roger Corman
Аудио 4: English; AC3; 48.0 KHz; 2ch; 384 Kbps Commentary: Tim Lucas
Формат субтитров: softsub (SRT)

MediaInfo

Format : Matroska
Format version : Version 4 / Version 2
File size : 3.33 GiB
Duration : 1h 19mn
Overall bit rate mode : Variable
Overall bit rate : 6 012 Kbps
Movie name : X: The Man with the X-Ray Eyes 1963 - Kino Lorber Blu-ray
Encoded date : UTC 2016-03-26 10:04:22
Writing application : mkvmerge v8.3.0 ('Over the Horizon') 64bit
Writing library : libebml v1.3.1 + libmatroska v1.4.2
Attachements : poster.jpg
DURATION : 01:19:11.968000000
NUMBER_OF_FRAMES : 148499
NUMBER_OF_BYTES : 114047232
_STATISTICS_WRITING_APP : mkvmerge v8.3.0 ('Over the Horizon') 64bit
_STATISTICS_WRITING_DATE_UT : 2016-03-26 10:04:22
_STATISTICS_TAGS : BPS DURATION NUMBER_OF_FRAMES NUMBER_OF_BYTES
Video
ID : 1
Format : AVC
Format/Info : Advanced Video Codec
Format profile : High@L4.1
Format settings, CABAC : Yes
Format settings, ReFrames : 6 frames
Codec ID : V_MPEG4/ISO/AVC
Duration : 1h 19mn
Nominal bit rate : 4 496 Kbps
Width : 1 280 pixels
Height : 694 pixels
Display aspect ratio : 1.85:1
Frame rate mode : Constant
Frame rate : 23.976 fps
Color space : YUV
Chroma subsampling : 4:2:0
Bit depth : 8 bits
Scan type : Progressive
Bits/(Pixel*Frame) : 0.211
Title : x264 | 4496 Kbps | 23.976 fps | 1.85:1
Writing library : x264 core 146 r2538 121396c
Encoding settings : cabac=1 / ref=6 / deblock=1:-3:-3 / analyse=0x3:0x133 / me=umh / subme=9 / psy=1 / psy_rd=1.00:0.00 / mixed_ref=1 / me_range=24 / chroma_me=1 / trellis=1 / 8x8dct=1 / cqm=0 / deadzone=21,11 / fast_pskip=0 / chroma_qp_offset=-2 / threads=6 / lookahead_threads=1 / sliced_threads=0 / nr=0 / decimate=0 / interlaced=0 / bluray_compat=0 / constrained_intra=0 / bframes=4 / b_pyramid=2 / b_adapt=2 / b_bias=0 / direct=1 / weightb=1 / open_gop=0 / weightp=2 / keyint=230 / keyint_min=23 / scenecut=40 / intra_refresh=0 / rc_lookahead=60 / rc=2pass / mbtree=1 / bitrate=4496 / ratetol=1.0 / qcomp=0.60 / qpmin=0 / qpmax=69 / qpstep=4 / cplxblur=20.0 / qblur=0.5 / vbv_maxrate=40000 / vbv_bufsize=30000 / nal_hrd=none / filler=0 / ip_ratio=1.40 / aq=1:1.00
Language : English
Default : Yes
Forced : No
Audio #1
ID : 2
Format : AC-3
Format/Info : Audio Coding 3
Mode extension : CM (complete main)
Format settings, Endianness : Big
Codec ID : A_AC3
Duration : 1h 19mn
Bit rate mode : Constant
Bit rate : 192 Kbps
Channel(s) : 2 channels
Channel positions : Front: L R
Sampling rate : 48.0 KHz
Compression mode : Lossy
Stream size : 109 MiB (3%)
Title : VO Eraserhead
Language : Russian
Default : Yes
Forced : No
Audio #2
ID : 3
Format : FLAC
Format/Info : Free Lossless Audio Codec
Codec ID : A_FLAC
Duration : 1h 19mn
Bit rate mode : Variable
Channel(s) : 1 channel
Sampling rate : 48.0 KHz
Bit depth : 24 bits
Writing library : libFLAC 1.3.0 (UTC 2013-05-26)
Language : English
Default : No
Forced : No
Audio #3
ID : 4
Format : AC-3
Format/Info : Audio Coding 3
Mode extension : CM (complete main)
Format settings, Endianness : Big
Codec ID : A_AC3
Duration : 1h 19mn
Bit rate mode : Constant
Bit rate : 384 Kbps
Channel(s) : 2 channels
Channel positions : Front: L R
Sampling rate : 48.0 KHz
Compression mode : Lossy
Stream size : 218 MiB (6%)
Title : [Commentary: Roger Corman] AC3 | 384 Kbps | 16 bits | 48 KHz | 2 chan
Language : English
Default : No
Forced : No
Audio #4
ID : 5
Format : AC-3
Format/Info : Audio Coding 3
Mode extension : CM (complete main)
Format settings, Endianness : Big
Codec ID : A_AC3
Duration : 1h 19mn
Bit rate mode : Constant
Bit rate : 384 Kbps
Channel(s) : 2 channels
Channel positions : Front: L R
Sampling rate : 48.0 KHz
Compression mode : Lossy
Stream size : 218 MiB (6%)
Title : [Commentary: Tim Lucas] AC3 | 384 Kbps | 16 bits | 48 KHz | 2 chan
Language : English
Default : No
Forced : No
Text #1
ID : 6
Format : UTF-8
Codec ID : S_TEXT/UTF8
Codec ID/Info : UTF-8 Plain Text
Title : Eraserhead
Language : Russian
Default : No
Forced : No
Text #2
ID : 7
Format : UTF-8
Codec ID : S_TEXT/UTF8
Codec ID/Info : UTF-8 Plain Text
Language : English
Default : No
Forced : No
Menu
00:00:00.000 : :00:00:00.000
00:08:40.437 : :00:08:40.437
00:17:53.656 : :00:17:53.656
00:32:02.963 : :00:32:02.963
00:41:15.556 : :00:41:15.556
00:46:34.250 : :00:46:34.250
00:57:29.404 : :00:57:29.404
01:06:48.963 : :01:06:48.963

Скриншоты



Показать сообщения:    

Текущее время: 18-Дек 09:16

Часовой пояс: UTC ± 0


Вы не можете начинать темы
Вы не можете отвечать на сообщения
Вы не можете редактировать свои сообщения
Вы не можете удалять свои сообщения
Вы не можете голосовать в опросах
Вы не можете прикреплять файлы к сообщениям
Вы не можете скачивать файлы

!ВНИМАНИЕ!
Сайт не предоставляет электронные версии произведений, а занимается лишь коллекционированием и каталогизацией ссылок, присылаемых и публикуемых на форуме нашими читателями. Если вы являетесь правообладателем какого-либо представленного материала и не желаете, чтобы ссылка на него находилась в нашем каталоге, свяжитесь с нами, и мы незамедлительно удалим ее. Файлы для обмена на трекере предоставлены пользователями сайта, и администрация не несет ответственности за их содержание. Просьба не заливать файлы, защищенные авторскими правами, а также файлы нелегального содержания!