Ивановский Торрент трекер
Яндекс.Погода
 

[Цитировать]
HUNTER

Человек с оружием / Man with the Gun- Страна: США
Студия: Formosa Productions
Жанр: вестерн
Год выпуска: 1955
Продолжительность: 1:20:37
Перевод: Одноголосый закадровый (funny77)
Cубтитры: английские
Оригинальная аудиодорожка: английский-Режиссер:
• Ричард Уилсон / Richard Wilson
В ролях:
• Роберт Митчум / Robert Mitchum
• Джен Стерлинг / Jan Sterling
• Карен Шарп / Karen Sharpe
• Генри Халл / Henry Hull
• Эмиль Мейер / Emile Meyer
• Джон Луптон / John Lupton
• Барбара Лоуренс / Barbara Lawrence
• Тед де Корсия / Ted de Corsia
• Энджи Дикинсон / Angie Dickinson-Описание: Муниципальный совет городка Шеридан поручает профессиональному "чистильщику городов" Клинту Толлинджеру избавить окрестности от головорезов Дэйда Холмена, которые грабят дома, крадут скот, разрушают шахты и повсюду сеют страх. Толлинджер находит свою жену Нелли, некогда родившую ему дочь Бесс. Впрочем, именно ради того, чтобы вновь увидеть Бесс и Нелли, он и согласился приехать в Шеридан...-Перевод: Roy Rogers
Озвучка: funny77-ДВД5-IMDB :: Сэмпл-Тип релиза: HDTV 1080i
Контейнер: MKV
Видео: AVC 1920x1080 (16:9) 25.0fps Bit rate 6895 Kbps
Аудио 1: Russian: 48 kHz, AC3, 2/0 ch (L,R), 192 kbps
Аудио 2: English: 48 kHz, AC3, 2/0 ch (L,R), 384 kbps
Формат субтитров: softsub (SRT)

Дополнительно

Исходником для релиза послужила собственная запись с немецкого телеканала MGM HD, к которой добавлена русская звуковая дорожка.
Также добавлена разбивка по главам и английские субтитры.
Данное видео короче ДВД-версии примерно на 16 сек. Немцы выкинули малозначимый фрагмент (10,6 сек.) из сцены с пожаром (по хронометражу этой записи - в районе 1:01:32). И ещё около 6 сек. набежало за счёт фоновых звуков.

MediaInfo

Общее
Уникальный идентификатор : 240330285280154158389238189973516044990 (0xB4CDEDE65EB9CE9B8301F8DF742FCABE)
Полное имя : E:\Man_with_the_Gun_rus.mkv
Формат : Matroska
Версия формата : Version 2
Размер файла : 4,29 Гбайт
Продолжительность : 1 ч. 20 м.
Общий поток : 7623 Кбит/сек
Дата кодирования : UTC 2014-03-06 23:24:07
Программа кодирования : mkvmerge v6.6.0 ('The Edge Of The In Between') built on Dec 1 2013 17:55:00
Библиотека кодирования : libebml v1.3.0 + libmatroska v1.4.1
Видео
Идентификатор : 1
Формат : AVC
Формат/Информация : Advanced Video Codec
Профиль формата : High@L4.0
Параметр CABAC формата : Да
Параметр ReFrames формата : 3 кадра
Параметр GOP формата : M=4, N=28
Идентификатор кодека : V_MPEG4/ISO/AVC
Продолжительность : 1 ч. 20 м.
Битрейт : 6895 Кбит/сек
Ширина : 1920 пикселей
Высота : 1080 пикселей
Соотношение сторон : 16:9
Режим частоты кадров : Постоянный
Частота кадров : 25,000 кадров/сек
Стандарт вещания : Component
Цветовое пространство : YUV
Субдискретизация насыщенности : 4:2:0
Битовая глубина : 8 бит
Тип развёртки : Чересстрочная
Порядок развёртки : Верхнее поле первое
Бит/(Пиксели*Кадры) : 0.133
Размер потока : 3,88 Гбайт (90%)
Default : Да
Forced : Нет
Основные цвета : BT.709
Характеристики трансфера : BT.709
Коэффициенты матрицы : BT.709
Аудио #1
Идентификатор : 2
Формат : AC-3
Формат/Информация : Audio Coding 3
Расширение режима : CM (complete main)
Параметр Endianness формата : Big
Идентификатор кодека : A_AC3
Продолжительность : 1 ч. 20 м.
Вид битрейта : Постоянный
Битрейт : 192 Кбит/сек
Каналы : 2 канала
Расположение каналов : Front: L R
Частота : 48,0 КГц
Битовая глубина : 16 бит
Метод сжатия : С потерями
Размер потока : 111 Мбайт (3%)
Язык : Russian
Default : Да
Forced : Нет
Аудио #2
Идентификатор : 3
Формат : AC-3
Формат/Информация : Audio Coding 3
Расширение режима : CM (complete main)
Параметр Endianness формата : Big
Идентификатор кодека : A_AC3
Продолжительность : 1 ч. 20 м.
Вид битрейта : Постоянный
Битрейт : 384 Кбит/сек
Каналы : 2 канала
Расположение каналов : Front: L R
Частота : 48,0 КГц
Битовая глубина : 16 бит
Метод сжатия : С потерями
Размер потока : 221 Мбайт (5%)
Язык : English
Default : Нет
Forced : Нет
Текст
Идентификатор : 4
Формат : UTF-8
Идентификатор кодека : S_TEXT/UTF8
Идентификатор кодека/Информация : UTF-8 Plain Text
Язык : English
Default : Нет
Forced : Нет
Меню
00:00:00.000 : en:Chapter 1
00:08:35.920 : en:Chapter 2
00:12:33.760 : en:Chapter 3
00:20:30.120 : en:Chapter 4
00:24:25.240 : en:Chapter 5
00:29:06.400 : en:Chapter 6
00:37:03.680 : en:Chapter 7
00:44:54.080 : en:Chapter 8
00:54:30.800 : en:Chapter 9
01:02:09.520 : en:Chapter 10
01:08:13.760 : en:Chapter 11
01:12:50.440 : en:Chapter 12
01:16:08.000 : en:Chapter 13

Скриншоты

Показать сообщения:    

Текущее время: 19-Окт 02:22

Часовой пояс: UTC - 1


Вы не можете начинать темы
Вы не можете отвечать на сообщения
Вы не можете редактировать свои сообщения
Вы не можете удалять свои сообщения
Вы не можете голосовать в опросах
Вы не можете прикреплять файлы к сообщениям
Вы не можете скачивать файлы

!ВНИМАНИЕ!
Сайт не предоставляет электронные версии произведений, а занимается лишь коллекционированием и каталогизацией ссылок, присылаемых и публикуемых на форуме нашими читателями. Если вы являетесь правообладателем какого-либо представленного материала и не желаете, чтобы ссылка на него находилась в нашем каталоге, свяжитесь с нами, и мы незамедлительно удалим ее. Файлы для обмена на трекере предоставлены пользователями сайта, и администрация не несет ответственности за их содержание. Просьба не заливать файлы, защищенные авторскими правами, а также файлы нелегального содержания!