Важное объявление!
У Нас Все раздачи мультитрекерные, при нуле пиров в релизах, можете смело вставать на закачку!
 
Автор Сообщение

HUNTER

Стаж:
4 года 10 месяцев
Сообщений:
65570

Репутация: 101

[+] [-]
Вне форума [Профиль] [ЛС]

Человек с золотой рукой / The Man with the Golden Arm
Страна: США
Студия: Otto Preminger Films, Carlyle Productions
Жанр: драма, мелодрама
Год выпуска: 1955
Продолжительность: 01:59:14
Перевод 1: Профессиональный (двухголосый закадровый) - "СВ Дубль" по заказу ГТРК "Культура" 2005 г.
Перевод 2: Профессиональный (двухголосый закадровый)
Cубтитры: нет
Оригинальная аудиодорожка: английский
Режиссер: Отто Преминджер / Otto Preminger
В ролях: Фрэнк Синатра, Элинор Паркер, Ким Новак, Арнольд Стэнг, Дэррен МакГэвин, Роберт Штраусс, Джон Конте, Доро Меранде, Джордж Э. Стоун, Джордж Мэтьюз ...
Описание: Фрэнки Макине, маэстро карточной игры, возвращается домой из наркологического реабилитационного центра, в котором он лечился. Он мечтает начать новую жизнь, бросить игру и стать джазовым барабанщиком. Но его прикованная к инвалидной коляске жена Зош, требует, чтобы все осталось по-старому.
Его бывший хозяин шантажом заставляет его вновь сесть за карты, а наркодилер соблазняет бесплатным уколом. И только его бывшая любовница Молли поддерживает в нем надежду на перемены и веру в себя. Обиду, злость, ревность, наркотические ломки предстоит пережить Фрэнки, чтобы приблизиться к своей мечте.
Доп. информация: Исходник Der.Mann.mit.dem.goldenen.Arm.1955.German.DL.1080p.BluRay.x264-CONTRiBUTiON найден в сети.--Синхронизация звук. дорожек Нордер
За что ему превеликая благодарность
-
-

Об Аудио

Нордер писал(а):
Цитата:

там довольно сложный синхрон (порядка 100 надрезов на каждую дорожку)

-
- --The Man with the Golden Arm (1955)_1080p BDRip_Sample_.mkv-
-

Награды


-
-Тип релиза: BDRip 1080p
Контейнер: MKV
Видео: x264, 1488x1080, 1.378:1, 24.000 fps, 10.2 Mbps, Progressive, 0.264 Bits/(Pixel*Frame)
Аудио 1: 48 kHz, AC3 Dolby Digital, 2/0 (L,R) ch, ~192 kbps, Русский - DVO "СВ Дубль" по заказу ГТРК "Культура" 2005 г.
Аудио 2: 48 kHz, AC3 Dolby Digital, 2/0 (L,R) ch, ~192 kbps, Русский - DVO
Аудио 3: 48 kHz, DTS, 1/0 (C) ch, 24 bits, ~768 kbps, Английский

MediaInfo

General
Unique ID : 242048736533103419645634212074690435298 (0xB618E4168BB2E517A849CCE87E03D8E2)
Complete name : I:\111\z_D_Disk\The Man with the Golden Arm (1955)_1080p BDRip_.mkv
Format : Matroska
Format version : Version 4 / Version 2
File size : 9.63 GiB
Duration : 1h 59mn
Overall bit rate : 11.6 Mbps
Encoded date : UTC 2016-01-13 06:04:14
Writing application : mkvmerge v8.6.1 ('Flying') 64bit
Writing library : libebml v1.3.3 + libmatroska v1.4.4
Video
ID : 1
Format : AVC
Format/Info : Advanced Video Codec
Format profile : High@L4.1
Format settings, CABAC : Yes
Format settings, ReFrames : 4 frames
Codec ID : V_MPEG4/ISO/AVC
Duration : 1h 59mn
Bit rate : 10.2 Mbps
Width : 1 488 pixels
Height : 1 080 pixels
Display aspect ratio : 1.378
Frame rate mode : Constant
Frame rate : 24.000 fps
Color space : YUV
Chroma subsampling : 4:2:0
Bit depth : 8 bits
Scan type : Progressive
Bits/(Pixel*Frame) : 0.264
Stream size : 8.48 GiB (88%)
Title : The Man with the Golden Arm (1955)_1080p BDRip_
Writing library : x264 core 138 r2358 9e941d1
Encoding settings : cabac=1 / ref=4 / deblock=1:-3:-3 / analyse=0x3:0x113 / me=umh / subme=8 / psy=1 / psy_rd=1.00:0.15 / mixed_ref=1 / me_range=16 / chroma_me=1 / trellis=1 / 8x8dct=1 / cqm=0 / deadzone=21,11 / fast_pskip=0 / chroma_qp_offset=-3 / threads=12 / lookahead_threads=2 / sliced_threads=0 / nr=0 / decimate=1 / interlaced=0 / bluray_compat=0 / constrained_intra=0 / bframes=3 / b_pyramid=2 / b_adapt=2 / b_bias=0 / direct=3 / weightb=1 / open_gop=0 / weightp=2 / keyint=240 / keyint_min=24 / scenecut=40 / intra_refresh=0 / rc_lookahead=50 / rc=crf / mbtree=1 / crf=20.0 / qcomp=0.60 / qpmin=0 / qpmax=69 / qpstep=4 / ip_ratio=1.40 / aq=1:1.00
Language : English
Default : Yes
Forced : No
Audio #1
ID : 2
Format : AC-3
Format/Info : Audio Coding 3
Mode extension : CM (complete main)
Format settings, Endianness : Big
Codec ID : A_AC3
Duration : 1h 59mn
Bit rate mode : Constant
Bit rate : 192 Kbps
Channel(s) : 2 channels
Channel positions : Front: L R
Sampling rate : 48.0 KHz
Compression mode : Lossy
Stream size : 164 MiB (2%)
Title : DVO ("СВ Дубль" по заказу ГТРК "Культура" 2005 г.)
Language : Russian
Default : Yes
Forced : No
Audio #2
ID : 3
Format : AC-3
Format/Info : Audio Coding 3
Mode extension : CM (complete main)
Format settings, Endianness : Big
Codec ID : A_AC3
Duration : 1h 59mn
Bit rate mode : Constant
Bit rate : 192 Kbps
Channel(s) : 2 channels
Channel positions : Front: L R
Sampling rate : 48.0 KHz
Compression mode : Lossy
Stream size : 164 MiB (2%)
Title : DVO
Language : Russian
Default : No
Forced : No
Audio #3
ID : 4
Format : DTS
Format/Info : Digital Theater Systems
Mode : 16
Format settings, Endianness : Big
Codec ID : A_DTS
Duration : 1h 59mn
Bit rate mode : Constant
Bit rate : 768 Kbps
Channel(s) : 1 channel
Channel positions : Front: C
Sampling rate : 48.0 KHz
Bit depth : 24 bits
Compression mode : Lossy
Stream size : 655 MiB (7%)
Language : English
Default : No
Forced : No
Menu
00:00:00.000 : en:
00:01:37.792 : en:
00:15:13.917 : en:
00:26:46.583 : en:
00:34:31.583 : en:
00:46:45.208 : en:
01:00:45.625 : en:
01:11:48.958 : en:
01:18:49.208 : en:
01:29:28.583 : en:
01:44:01.875 : en:
01:53:20.625 : en:

_________________
Показать сообщения:    

Текущее время: Сегодня 04:10

Часовой пояс: GMT



Вы не можете начинать темы
Вы не можете отвечать на сообщения
Вы не можете редактировать свои сообщения
Вы не можете удалять свои сообщения
Вы не можете голосовать в опросах
Вы не можете прикреплять файлы к сообщениям
Вы не можете скачивать файлы