Ивановский Торрент трекер
Яндекс.Погода
 

[Цитировать]
димитри37

Человек с железными кулаками / The Man with the Iron Fists
Год выпуска: 2012
Производство: США, Гонконг / Arcade Pictures, Iron Fists
Жанр: Боевик
Продолжительность: 01:35:16
Перевод: Профессиональный (полное дублирование) лицензия
Субтитры: Английские (форс.), английские (SDH), русские (полные + форс.) |отключаемые|
Режиссер: RZA / RZA
В ролях: Рассел Кроу, Люси Лью, Пэм Гриер, РЗА, Джа Хуи Лью, Джеми Чунг, Дэйв Батиста, Кунг Ле, Жу Жу, Рик Юн, Байрон Манн, Осрик Чау
О фильме: События развернутся в древнем феодальном Китае. Фильм расскажет историю чернокожего кузнеца, который умеет делать оружие и с легкой руки снабжает им всех, у кого есть чем заплатить. Китай того времени — жестокое место, поэтому оружие и знание навыков кунг-фу помогут жителям близлежащей деревни защитить свои дома и семьи от других кланов…
Бюджет: $15 000 000

Качество: BDRip-AVC [The Man with the Iron Fists 2012 CEE 1080p Bluray AVC DTS-HD MA 5.1 DVDSEED - Gogeta]
Формат: MKV
Видео: H.264, 1128x470 (2.40:1), 23,976 fps, 2390 Кbps, 0.188 bit/pixel
Аудио#1: 48 kHz, AC3 Dolby Digital, 3/2 (L,C,R,l,r) + LFE ch, ~448.00 kbps avg | RUS
Аудио#2: 48 kHz, AC3 Dolby Digital, 3/2 (L,C,R,l,r) + LFE ch, ~448.00 kbps avg | ENG
Ссылка: Источник

MI

Общее
Уникальный идентификатор : 170549024497122834211686254626506212539 (0x804E8C1D96FB63829AF19029C50B04BB)
Полное имя : Chelovek.s.Zheleznymi.Kulakami.2012.D.BDRip.x264.potroks.mkv
Формат : Matroska
Версия формата : Version 2
Размер файла : 2,19 Гбайт
Продолжительность : 1 ч. 35 м.
Общий поток : 3288 Кбит/сек
Название фильма : -=POTROKS=-
Дата кодирования : UTC 2013-04-28 19:33:03
Программа кодирования : mkvmerge v5.9.0 ('On The Loose') built on Dec 15 2012 16:39:58
Библиотека кодирования : libebml v1.3.0 + libmatroska v1.4.0
Видео
Идентификатор : 1
Формат : AVC
Формат/Информация : Advanced Video Codec
Профиль формата : High@L4.1
Параметр CABAC формата : Да
Параметр ReFrames формата : 14 кадров
Идентификатор кодека : V_MPEG4/ISO/AVC
Продолжительность : 1 ч. 35 м.
Битрейт : 2390 Кбит/сек
Ширина : 1128 пикселей
Высота : 470 пикселей
Соотношение сторон : 2,40:1
Режим частоты кадров : Постоянный
Частота кадров : 23,976 кадра/сек
Цветовое пространство : YUV
Субдискретизация насыщенности : 4:2:0
Битовая глубина : 8 бит
Тип развёртки : Прогрессивная
Бит/(Пиксели*Кадры) : 0.188
Размер потока : 1,55 Гбайт (71%)
Заголовок : The Man with the Iron Fists
Библиотека кодирования : x264 core 125 r2208 d9d2288
Настройки программы : cabac=1 / ref=14 / deblock=1:-2:-1 / analyse=0x3:0x133 / me=umh / subme=11 / psy=1 / psy_rd=1.10:0.15 / mixed_ref=1 / me_range=32 / chroma_me=1 / trellis=2 / 8x8dct=1 / cqm=0 / deadzone=21,11 / fast_pskip=0 / chroma_qp_offset=-3 / threads=9 / lookahead_threads=1 / sliced_threads=0 / nr=0 / decimate=1 / interlaced=0 / bluray_compat=0 / constrained_intra=0 / bframes=15 / b_pyramid=2 / b_adapt=2 / b_bias=0 / direct=3 / weightb=1 / open_gop=0 / weightp=2 / keyint=240 / keyint_min=23 / scenecut=40 / intra_refresh=0 / rc_lookahead=100 / rc=2pass / mbtree=1 / bitrate=2390 / ratetol=1.0 / qcomp=0.70 / qpmin=0 / qpmax=69 / qpstep=4 / cplxblur=20.0 / qblur=0.5 / vbv_maxrate=20000 / vbv_bufsize=25000 / nal_hrd=none / ip_ratio=1.35 / aq=1:0.70
Язык : English
Default : Да
Forced : Нет
Аудио #1
Идентификатор : 2
Формат : AC-3
Формат/Информация : Audio Coding 3
Расширение режима : CM (complete main)
Параметр Endianness формата : Big
Идентификатор кодека : A_AC3
Продолжительность : 1 ч. 35 м.
Вид битрейта : Постоянный
Битрейт : 448 Кбит/сек
Каналы : 6 каналов
Расположение каналов : Front: L C R, Side: L R, LFE
Частота : 48,0 КГц
Битовая глубина : 16 бит
Метод сжатия : С потерями
Размер потока : 305 Мбайт (14%)
Заголовок : Dub | DD 5.1 @ 448 kbps
Язык : Russian
Default : Да
Forced : Да
Аудио #2
Идентификатор : 3
Формат : AC-3
Формат/Информация : Audio Coding 3
Расширение режима : CM (complete main)
Параметр Endianness формата : Big
Идентификатор кодека : A_AC3
Продолжительность : 1 ч. 35 м.
Вид битрейта : Постоянный
Битрейт : 448 Кбит/сек
Каналы : 6 каналов
Расположение каналов : Front: L C R, Side: L R, LFE
Частота : 48,0 КГц
Битовая глубина : 16 бит
Метод сжатия : С потерями
Размер потока : 305 Мбайт (14%)
Заголовок : Original | DD 5.1 @ 448 kbps
Язык : Russian
Default : Нет
Forced : Нет
Текст #1
Идентификатор : 4
Формат : UTF-8
Идентификатор кодека : S_TEXT/UTF8
Идентификатор кодека/Информация : UTF-8 Plain Text
Заголовок : Forced
Язык : English
Default : Нет
Forced : Нет
Текст #2
Идентификатор : 5
Формат : UTF-8
Идентификатор кодека : S_TEXT/UTF8
Идентификатор кодека/Информация : UTF-8 Plain Text
Заголовок : SDH
Язык : English
Default : Нет
Forced : Нет
Текст #3
Идентификатор : 6
Формат : UTF-8
Идентификатор кодека : S_TEXT/UTF8
Идентификатор кодека/Информация : UTF-8 Plain Text
Заголовок : Forced
Язык : Russian
Default : Да
Forced : Да
Текст #4
Идентификатор : 7
Формат : UTF-8
Идентификатор кодека : S_TEXT/UTF8
Идентификатор кодека/Информация : UTF-8 Plain Text
Заголовок : Full
Язык : Russian
Default : Нет
Forced : Нет

log@x.264

x264 [info]: frame I:1062 Avg QP:16.84 size: 73370
x264 [info]: frame P:32598 Avg QP:18.37 size: 25280
x264 [info]: frame B:103389 Avg QP:21.06 size: 7790
x264 [info]: consecutive B-frames: 3.2% 4.1% 12.1% 22.2% 18.0% 28.1% 4.2% 3.5% 0.9% 0.6% 0.3% 1.6% 0.7% 0.1% 0.1% 0.2%
x264 [info]: mb I I16..4: 14.1% 60.4% 25.5%
x264 [info]: mb P I16..4: 1.0% 12.1% 2.3% P16..4: 29.8% 33.9% 11.4% 3.0% 0.6% skip: 6.1%
x264 [info]: mb B I16..4: 0.1% 1.8% 0.3% B16..8: 34.8% 17.8% 2.6% direct: 4.4% skip:38.1% L0:41.1% L1:45.6% BI:13.3%
x264 [info]: 8x8 transform intra:77.0% inter:61.8%
x264 [info]: direct mvs spatial:97.5% temporal:2.5%
x264 [info]: coded y,uvDC,uvAC intra: 87.7% 82.9% 56.6% inter: 19.4% 17.2% 4.4%
x264 [info]: i16 v,h,dc,p: 21% 12% 4% 63%
x264 [info]: i8 v,h,dc,ddl,ddr,vr,hd,vl,hu: 13% 8% 4% 9% 13% 13% 13% 13% 13%
x264 [info]: i4 v,h,dc,ddl,ddr,vr,hd,vl,hu: 15% 8% 4% 9% 14% 14% 13% 11% 12%
x264 [info]: i8c dc,h,v,p: 37% 24% 20% 19%
x264 [info]: Weighted P-Frames: Y:4.3% UV:2.2%
x264 [info]: ref P L0: 51.6% 10.2% 15.7% 5.6% 4.1% 3.1% 2.5% 1.4% 1.2% 1.0% 0.9% 0.9% 0.8% 0.8% 0.2% 0.0%
x264 [info]: ref B L0: 77.3% 10.2% 4.9% 2.2% 1.5% 1.1% 0.9% 0.5% 0.4% 0.4% 0.3% 0.2% 0.1%
x264 [info]: ref B L1: 92.7% 7.3%
x264 [info]: kb/s:2389.61

Скриншоты



Показать сообщения:    

Текущее время: 26-Сен 04:32

Часовой пояс: UTC - 1


Вы не можете начинать темы
Вы не можете отвечать на сообщения
Вы не можете редактировать свои сообщения
Вы не можете удалять свои сообщения
Вы не можете голосовать в опросах
Вы не можете прикреплять файлы к сообщениям
Вы не можете скачивать файлы

!ВНИМАНИЕ!
Сайт не предоставляет электронные версии произведений, а занимается лишь коллекционированием и каталогизацией ссылок, присылаемых и публикуемых на форуме нашими читателями. Если вы являетесь правообладателем какого-либо представленного материала и не желаете, чтобы ссылка на него находилась в нашем каталоге, свяжитесь с нами, и мы незамедлительно удалим ее. Файлы для обмена на трекере предоставлены пользователями сайта, и администрация не несет ответственности за их содержание. Просьба не заливать файлы, защищенные авторскими правами, а также файлы нелегального содержания!