Важное объявление!
У Нас Все раздачи мультитрекерные, при нуле пиров в релизах, можете смело вставать на закачку!
 
Автор Сообщение

HUNTER

Стаж:
4 года 7 месяцев
Сообщений:
61590

Репутация: 101

[+] [-]
Вне форума [Профиль] [ЛС]

Человек с востока / E poi lo chiamarono il magnifico
Страна: Италия, Франция, Югославия
Жанр: вестерн, комедия
Год выпуска: 1972
Продолжительность: 02:05:11
Перевод#1: Профессиональный (многоголосый закадровый) | Сервис-Партнер
Перевод#2: Авторский (одноголосый закадровый), С. Кузнецов
Перевод#3: Одноголосый закадровый, неизвестный ("Немец")
Cубтитры: русские (sasikainen), итальянские
Оригинальная аудиодорожка: английский
Режиссер: Энцо Барбони / Enzo Barboni
В ролях: Теренс Хилл, Грегори Уэлкотт, Янти Соммер, Доминик Барто, Гарри Кэри мл., Энцо Фьермонте, Даника Ла Лоджа, Риккардо Пиццути, Жан Луис, Алессандро Сперли
Описание: Забавные приключения молодого чопорного англичанина Томаса на Диком Западе, где он под руководством трёх довольно мирных разбойников постигает простую жизнь без затей. Томас шокирует местных жителей своими манерами, и, влюбившись в дочь богатого фермера, окончательно становится посмешищем. Но не надолго
Его товарищи берутся превратить парня в настоящего лихого американца, чтобы тот дал достойный отпор навязчивому мордовороту Мортону, который записался к юной фермерше в женихи…

Тип релиза: BDRip 720p (от ThD) | sample
Контейнер: MKV
Видео кодек: x264
Видео: AVC 1280x544 (2.35:1), 23.976 fps, ~7800 Kbps, 0.47 bit/pixel
Аудио #1: Russian AC3 6ch 48kHz 384Kbps | MVO
Аудио #2: Russian AC3 2ch 48kHz 192Kbps | AVO Кузнецов
Аудио #3: Russian AC3 2ch 48kHz 192Kbps | VO "Немец"
Аудио #4: English FLAC 2ch 48kHz ~364Kbps | Original
*Итальянский дубляж ценители берут здесь
Формат субтитров: softsub (SRT)
Главы: есть

Дополнительно

За русские субтитры (в двух редакциях как я понял) благодарим sasikainen, за всю работу над дорогами - Linger babe

MediaInfo

General
Complete name : E:\...\E.poi.lo.chiamarono.il.magnifico.1972.720p.BluRay.x264.3xRus.Eng-ThD.mkv
Format : Matroska
Format version : Version 2
File size : 7.83 GiB
Duration : 2h 5mn
Overall bit rate mode : Variable
Overall bit rate : 8 957 Kbps
Movie name : E.poi.lo.chiamarono.il.magnifico.1972.720p.BluRay.x264.3xRus.Eng-ThD
Encoded date : UTC 2014-07-15 10:11:57
Writing application : mkvmerge v7.0.0 ('Where We Going') 64bit built on Jun 9 2014 15:16:27
Writing library : libebml v1.3.0 + libmatroska v1.4.1
Video
ID : 1
Format : AVC
Format/Info : Advanced Video Codec
Format profile : High@L4.1
Format settings, CABAC : Yes
Format settings, ReFrames : 12 frames
Codec ID : V_MPEG4/ISO/AVC
Width : 1 280 pixels
Height : 544 pixels
Display aspect ratio : 2.35:1
Frame rate mode : Variable
Original frame rate : 23.976 fps
Color space : YUV
Chroma subsampling : 4:2:0
Bit depth : 8 bits
Scan type : Progressive
Title : E poi lo chiamarono il magnifico (1972)
Writing library : x264 core 142 r2389kMod 956c8d8
Encoding settings : cabac=1 / ref=12 / deblock=1:-3:-3 / analyse=0x3:0x133 / me=umh / subme=9 / psy=1 / fade_compensate=0.00 / psy_rd=1.03:0.00 / mixed_ref=1 / me_range=48 / chroma_me=1 / trellis=2 / 8x8dct=1 / cqm=0 / deadzone=21,11 / fast_pskip=0 / chroma_qp_offset=-2 / threads=36 / lookahead_threads=4 / sliced_threads=0 / nr=0 / decimate=0 / interlaced=0 / bluray_compat=0 / constrained_intra=0 / fgo=0 / bframes=9 / b_pyramid=2 / b_adapt=2 / b_bias=0 / direct=3 / weightb=1 / open_gop=0 / weightp=2 / keyint=250 / keyint_min=23 / scenecut=40 / intra_refresh=0 / rc=crf / mbtree=0 / crf=17.0000 / qcomp=0.65 / qpmin=0 / qpmax=69 / qpstep=4 / ip_ratio=1.40 / pb_ratio=1.30 / aq=2:0.75
Language : Italian
Default : Yes
Forced : No
Audio #1
ID : 2
Format : AC-3
Format/Info : Audio Coding 3
Mode extension : CM (complete main)
Format settings, Endianness : Big
Codec ID : A_AC3
Duration : 2h 5mn
Bit rate mode : Constant
Bit rate : 384 Kbps
Channel(s) : 6 channels
Channel positions : Front: L C R, Side: L R, LFE
Sampling rate : 48.0 KHz
Bit depth : 16 bits
Compression mode : Lossy
Stream size : 344 MiB (4%)
Title : MVO
Language : Russian
Default : Yes
Forced : No
Audio #2
ID : 3
Format : AC-3
Format/Info : Audio Coding 3
Mode extension : CM (complete main)
Format settings, Endianness : Big
Codec ID : A_AC3
Duration : 2h 5mn
Bit rate mode : Constant
Bit rate : 192 Kbps
Channel(s) : 2 channels
Channel positions : Front: L R
Sampling rate : 48.0 KHz
Bit depth : 16 bits
Compression mode : Lossy
Stream size : 172 MiB (2%)
Title : AVO Kuznetsov
Language : Russian
Default : No
Forced : No
Audio #3
ID : 4
Format : AC-3
Format/Info : Audio Coding 3
Mode extension : CM (complete main)
Format settings, Endianness : Big
Codec ID : A_AC3
Duration : 2h 5mn
Bit rate mode : Constant
Bit rate : 192 Kbps
Channel(s) : 2 channels
Channel positions : Front: L R
Sampling rate : 48.0 KHz
Bit depth : 16 bits
Compression mode : Lossy
Stream size : 172 MiB (2%)
Title : AVO "Nemez"
Language : Russian
Default : No
Forced : No
Audio #4
ID : 5
Format : FLAC
Format/Info : Free Lossless Audio Codec
Codec ID : A_FLAC
Duration : 2h 5mn
Bit rate mode : Variable
Channel(s) : 2 channels
Sampling rate : 48.0 KHz
Bit depth : 16 bits
Title : Original
Writing library : libFLAC 1.2.1 (UTC 2007-09-17)
Language : English
Default : No
Forced : No
Text #1
ID : 6
Format : UTF-8
Codec ID : S_TEXT/UTF8
Codec ID/Info : UTF-8 Plain Text
Title : sasikainen (US version)
Language : Russian
Default : No
Forced : No
Text #2
ID : 7
Format : UTF-8
Codec ID : S_TEXT/UTF8
Codec ID/Info : UTF-8 Plain Text
Title : sasikainen (ITA version)
Language : Russian
Default : No
Forced : No
Text #3
ID : 8
Format : UTF-8
Codec ID : S_TEXT/UTF8
Codec ID/Info : UTF-8 Plain Text
Language : Italian
Default : No
Forced : No
Menu
00:00:00.000 : en:00:00:00.000
00:02:19.765 : en:00:02:19.765
00:08:54.284 : en:00:08:54.284
00:15:56.914 : en:00:15:56.914
00:23:05.426 : en:00:23:05.426
00:28:50.771 : en:00:28:50.771
00:39:09.097 : en:00:39:09.097
00:49:38.767 : en:00:49:38.767
01:01:44.367 : en:01:01:44.367
01:06:28.651 : en:01:06:28.651
01:13:39.332 : en:01:13:39.332
01:25:14.026 : en:01:25:14.026
01:32:39.512 : en:01:32:39.512
01:39:38.931 : en:01:39:38.931
01:48:41.515 : en:01:48:41.515
02:00:36.354 : en:02:00:36.354

Скриншоты

source vs ThD



_________________
Показать сообщения:    

Текущее время: Сегодня 06:21

Часовой пояс: GMT



Вы не можете начинать темы
Вы не можете отвечать на сообщения
Вы не можете редактировать свои сообщения
Вы не можете удалять свои сообщения
Вы не можете голосовать в опросах
Вы не можете прикреплять файлы к сообщениям
Вы не можете скачивать файлы
Наши партнеры: интернет магазин Ивановского трикотажа textilla.ru